<?xml version="1.0" standalone="no"?>
<!DOCTYPE svg PUBLIC "-//W3C//DTD SVG 1.1//EN" "http://www.w3.org/Graphics/SVG/1.1/DTD/svg11.dtd" >
<svg xmlns="http://www.w3.org/2000/svg">
<metadata>
This is a custom SVG webfont generated by Font Squirrel.
Designer    : Eva Grinder
Foundry     : Eva Grinder
</metadata>
<defs>
<font id="webfonto3aStUbX" horiz-adv-x="330" >
<font-face units-per-em="1000" ascent="800" descent="-200" />
<missing-glyph horiz-adv-x="262" />
<glyph unicode=" "  horiz-adv-x="262" />
<glyph unicode="&#x09;" horiz-adv-x="262" />
<glyph unicode="&#xa0;" horiz-adv-x="262" />
<glyph unicode="!" horiz-adv-x="151" d="M10 664l22 -455l13 3q13 3 29 3l43 -6l24 455q0 21 -15.5 38t-48.5 17q-36 0 -51.5 -16.5t-15.5 -38.5zM75 118q-29 0 -48 -15t-19 -46q0 -33 19.5 -50t51.5 -17q31 0 49.5 19.5t18.5 49.5q0 28 -21 43.5t-51 15.5z" />
<glyph unicode="&#x22;" horiz-adv-x="319" />
<glyph unicode="#" horiz-adv-x="698" />
<glyph unicode="$" horiz-adv-x="638" />
<glyph unicode="%" horiz-adv-x="824" />
<glyph unicode="&#x26;" horiz-adv-x="732" d="M306 688q-94 0 -162.5 -46.5t-68.5 -142.5q0 -31 11 -57t26.5 -40.5t31.5 -24.5t27 -13l11 -4v-6l-19 -8q-19 -8 -42 -24.5t-42 -53.5t-19 -84q0 -98 77.5 -150t206.5 -52q118 0 187.5 53t69.5 143v112q0 26 6.5 31.5t40.5 5.5h54v65q0 -3 -160 -3l-148 3v-65h49 q16 0 25 -2.5t12.5 -8.5t4 -9t0.5 -11v-139q0 -48 -36 -80.5t-98 -32.5q-73 0 -119.5 41.5t-46.5 106.5q0 59 31 97t87 38v65q-48 0 -81.5 31.5t-33.5 83.5t35.5 82.5t81.5 30.5q106 0 106 -92v-17h90v125l-21 13q-20 13 -68.5 26t-105.5 13z" />
<glyph unicode="'" horiz-adv-x="288" d="M152 757h68q13 0 16.5 -7.5t-4.5 -15.5l-122 -138h-60v10l56 129q5 8 8.5 11.5t12.5 7t25 3.5z" />
<glyph unicode="(" horiz-adv-x="317" d="M347 830v-14l-19 -18q-18 -19 -45 -59.5t-53.5 -93t-45 -131.5t-18.5 -164t18.5 -164t45 -131.5t53.5 -93t45 -59.5l19 -18v-14h-58l-23 18q-24 19 -58 60t-67.5 93.5t-57 132.5t-23.5 166q0 95 23.5 181t57 140t67.5 94t58 57l23 18h58z" />
<glyph unicode=")" horiz-adv-x="393" d="M60 -130v14l18 18q19 19 45.5 59.5t53.5 93t45.5 131.5t18.5 164t-18.5 164t-45.5 131.5t-53.5 93t-45.5 59.5l-18 18v14h58l24 -18q23 -19 57 -60t67.5 -93.5t57 -132.5t23.5 -166q0 -95 -23.5 -181t-57 -140t-67.5 -94t-57 -57l-24 -18h-58z" />
<glyph unicode="*" horiz-adv-x="348" d="M127 687q-32 0 -61 -27t-25 -33l9 7q9 7 19 8q16 6 25 4l8 -2q-10 -2 -25.5 -18t-21.5 -32q-3 -15 -3 -29.5t3 -17.5l11 15q11 16 24 28q8 6 32.5 18t36.5 23q3 3 13.5 17t17.5 17q2 0 2 -6q-2 -3 -6 -8q-17 -24 -12 -36q3 -13 11 -23.5t21.5 -21.5t16.5 -15l14 -21 q1 0 1 3q-1 11 3 21q17 55 -3 84q-10 19 -30 19q-12 0 -14 6q0 2 8 2q15 -4 31 -2q16 3 44 18.5t31 16.5q-21 15 -49 11q-32 -6 -58 -40l-8 -4l-1 9q0 2 2.5 8.5t4.5 14.5t2 16q-1 12 -7 27l-5 15l-11 -17q-10 -16 -10 -29q0 -11 15 -28q4 -4 5 -9v-6l-7 -1q-3 0 -16 9 t-38 9zM188 668l-7 -7l-13 -2l5 3q5 2 5 3q2 2 6 3h4z" />
<glyph unicode="+" horiz-adv-x="450" />
<glyph unicode="," horiz-adv-x="208" d="M101 110q34 0 53.5 -17.5t19.5 -45.5q0 -31 -20 -67.5t-40 -57.5l-20 -21h-60v10q11 9 21.5 20.5t20.5 26t6.5 28t-22.5 21.5q-26 11 -26 41q0 25 16 43.5t51 18.5z" />
<glyph unicode="-" d="M40 190v80h250v-80h-250z" />
<glyph unicode="." horiz-adv-x="207" d="M101 110q-29 0 -48 -15t-19 -46q0 -33 19.5 -50t51.5 -17q31 0 49.5 19.5t18.5 49.5q0 28 -21 43.5t-51 15.5z" />
<glyph unicode="/" horiz-adv-x="481" d="M0 -109l412 939h19l50 -23l-416 -937h-20z" />
<glyph unicode="0" horiz-adv-x="595" d="M156 230q0 -66 40 -114t103 -48q61 0 100 48t39 114q0 69 -39 117.5t-100 48.5q-63 0 -103 -48.5t-40 -117.5zM40 230q0 106 75 177t184 71q105 0 180.5 -71.5t75.5 -176.5q0 -104 -75.5 -174t-180.5 -70q-109 0 -184 70t-75 174z" />
<glyph unicode="1" horiz-adv-x="359" d="M235 464h-91q0 -68 -114 -68v-63h100v-202q0 -39 -22.5 -54t-77.5 -15v-62q0 4 153 4l146 -4v62q-46 0 -65.5 3.5t-24 9t-4.5 20.5v369z" />
<glyph unicode="2" horiz-adv-x="524" d="M242 478q-49 0 -97 -16.5t-71 -33.5l-24 -16v-104h77q0 40 31 64t76 24q38 0 65.5 -17t27.5 -50q0 -26 -37.5 -59.5t-84.5 -61t-94 -64t-61 -67.5v-77l192 3l232 -3v132h-70q0 -50 -48 -50h-167q-1 17 38 43t86.5 52t87 70t39.5 93q0 69 -56.5 103.5t-141.5 34.5z" />
<glyph unicode="3" horiz-adv-x="469" d="M211 478q-48 0 -95.5 -18t-71.5 -36l-24 -19v-88h79q1 32 27.5 56t73.5 24q31 0 58.5 -18t27.5 -55q0 -52 -42.5 -81.5t-87.5 -29.5v-83q152 0 152 -105q0 -58 -41 -87t-97 -29q-35 0 -67 8.5t-46 16.5l-14 9h-21v-84l18 -7q18 -8 54 -15t72 -7q124 0 193.5 59t69.5 159 q0 45 -21.5 77t-48 44.5t-47.5 16.5l-22 5v3q1 1 14 7t22.5 11.5t23.5 17.5t23.5 26t16.5 35.5t7 46.5q0 71 -53 105.5t-133 34.5z" />
<glyph unicode="4" horiz-adv-x="558" d="M448 464h-103q-12 0 -153.5 -183t-141.5 -201v-80h295v-170h106l-3 170h90v80h-90v384zM345 336v-256h-187q0 13 47 77l93 121z" />
<glyph unicode="5" horiz-adv-x="487" d="M79 464v-327h20l25 5q26 6 59 6q71 0 107 -35.5t36 -87.5q0 -51 -34.5 -83.5t-103.5 -32.5q-36 0 -68 8.5t-46 16.5l-14 9h-20v-83l19 -8q19 -7 55 -14.5t70 -7.5q123 0 193 64.5t70 153.5q0 78 -51 133t-154 55q-20 0 -48 -4l-28 -5v142h254v95q-16 0 -73.5 -1.5 t-86.5 -1.5q-36 0 -98.5 1.5t-82.5 1.5z" />
<glyph unicode="6" horiz-adv-x="521" d="M454 517v83l-16 7q-15 7 -46.5 14.5t-63.5 7.5q-70 0 -126.5 -29.5t-91 -79t-52.5 -109.5t-18 -124q0 -83 8 -127t33 -88q23 -40 72.5 -63t108.5 -23q95 0 157 61.5t62 165.5q0 86 -52 139.5t-131 53.5q-35 0 -70.5 -7.5t-53.5 -14.5l-18 -8q2 79 51 127.5t120 48.5 q28 0 54.5 -9t39.5 -17l13 -9h20zM155 207l3 109l31 6q31 7 65 7q52 0 83.5 -36.5t32.5 -91.5q2 -146 -104 -146q-56 0 -83.5 45t-27.5 107z" />
<glyph unicode="7" horiz-adv-x="549" d="M40 464v-151h80q0 36 12.5 47.5t39.5 11.5l108 2q109 1 109 -2q-3 -36 -28.5 -79.5t-60 -87.5t-69 -93.5t-58 -113.5t-23.5 -130v-28h114q-7 74 25 160.5t75 149.5l88 130q45 68 57 98v86q0 -4 -226 -4z" />
<glyph unicode="8" horiz-adv-x="550" d="M273 630q-81 0 -146.5 -46t-65.5 -122q0 -26 8 -48.5t19.5 -37t25 -26.5t25.5 -18.5t19 -9.5l8 -3q-4 0 -21 -7.5t-42 -23t-44 -50.5t-19 -80q0 -62 63.5 -117t162.5 -55q110 0 177 51.5t67 133.5q0 39 -18 71.5t-40 49.5t-40 26l-18 10l14 10q13 11 29.5 28t30 43.5 t13.5 52.5q0 83 -63 125.5t-145 42.5zM277 564q38 0 73.5 -28.5t35.5 -74.5q0 -23 -12 -43.5t-26.5 -31t-26.5 -16.5l-12 -6l-33 12q-34 11 -68 37.5t-34 56.5q0 46 32.5 70t70.5 24zM253 272l33 -12q32 -11 65 -40t33 -63q0 -50 -32 -74.5t-81 -24.5q-53 0 -89.5 27 t-36.5 74q0 30 27 58.5t54 41.5z" />
<glyph unicode="9" horiz-adv-x="526" d="M77 -57v-83l16 -8q16 -7 52 -14.5t75 -7.5q65 0 112.5 17t77 46t47 75t23.5 96t6 116q0 87 -19.5 148.5t-53 92.5t-70 44t-80.5 13q-101 0 -162 -64.5t-61 -166.5q0 -95 63 -146.5t141 -51.5q39 0 70.5 12.5t43.5 24.5l12 13q1 -28 0 -51t-9 -50.5t-23 -46t-44.5 -31.5 t-69.5 -13q-35 0 -67 9t-47 18l-14 9h-19zM261 404q34 0 57.5 -16.5t32 -40t14 -48.5t3 -43t-0.5 -24q0 -40 -24 -71t-77 -31q-54 0 -82.5 38t-28.5 92q0 59 25.5 101.5t80.5 42.5z" />
<glyph unicode=":" horiz-adv-x="207" d="M101 110q-29 0 -48 -15t-19 -46q0 -33 19.5 -50t51.5 -17q31 0 49.5 19.5t18.5 49.5q0 28 -21 43.5t-51 15.5zM101 418q-29 0 -48 -15t-19 -46q0 -33 19.5 -50t51.5 -17q31 0 49.5 19.5t18.5 49.5q0 28 -21 43.5t-51 15.5z" />
<glyph unicode=";" horiz-adv-x="208" d="M101 418q-29 0 -48 -15t-19 -46q0 -33 19.5 -50t51.5 -17q31 0 49.5 19.5t18.5 49.5q0 28 -21 43.5t-51 15.5zM101 110q34 0 53.5 -17.5t19.5 -45.5q0 -31 -20 -67.5t-40 -57.5l-20 -21h-60v10q11 9 21.5 20.5t20.5 26t6.5 28t-22.5 21.5q-26 11 -26 41q0 25 16 43.5 t51 18.5z" />
<glyph unicode="&#x3c;" horiz-adv-x="440" />
<glyph unicode="=" horiz-adv-x="450" />
<glyph unicode="&#x3e;" horiz-adv-x="440" />
<glyph unicode="?" horiz-adv-x="431" d="M10 649v-101h80q0 38 35.5 69.5t91.5 31.5q39 0 65 -22.5t26 -48.5q0 -18 -10.5 -38t-25.5 -36t-31 -35l-31 -33q-21 -24 -28.5 -33.5t-21.5 -32t-19 -42t-8.5 -50.5t-2.5 -69l18 3q18 3 30 3l47 -6q-6 58 11.5 105.5t47.5 79.5t61 61t53.5 63.5t22.5 72.5q0 70 -57 104 t-136 34q-64 0 -118.5 -20t-77.5 -40zM182 118q-29 0 -48 -15t-19 -46q0 -33 19.5 -50t51.5 -17q31 0 49.5 19.5t18.5 49.5q0 28 -21 43.5t-51 15.5z" />
<glyph unicode="@" horiz-adv-x="975" d="M723 64q-22 0 -31 11t-9 39v336h-33l-17 -16q-17 -17 -18 -15l-19 11q-20 12 -56 23t-70 11q-88 0 -146.5 -60t-58.5 -165q0 -133 48.5 -193t142.5 -60q33 0 66 15t50 30l17 15l27 -56h21q43 9 69.5 16.5t63 22.5t58.5 35.5t43.5 50.5t31.5 74t10 101q0 174 -102.5 270.5 t-272.5 96.5q-63 0 -125.5 -12.5t-128 -45.5t-114.5 -82.5t-80.5 -130.5t-30.5 -183q1 -90 25.5 -161t64.5 -115t95 -73t112 -40.5t120 -11.5q80 0 149 19.5t98 38.5l29 20v62h-16l-26 -16q-25 -17 -86.5 -33.5t-133.5 -16.5q-169 0 -254 86.5t-85 277.5q0 113 55.5 193 t140.5 116t189 36q127 0 205 -73.5t78 -220.5q5 -121 -25 -174t-71 -53zM584 367l1 -162q1 -135 -98 -135q-57 0 -85.5 41.5t-28.5 111.5q0 72 29 116t90 44q9 0 18 -0.5t17 -2.5l15 -2q8 -2 14.5 -3t11.5 -2.5t8.5 -3t5.5 -1.5z" />
<glyph unicode="A" horiz-adv-x="725" d="M364 697l-79 3l-208 -587q-11 -29 -22 -41t-35 -12v-60q0 3 106 3l146 -3v60q-47 0 -65.5 14t-11.5 47l25 80q0 2 131 2l130 -2l23 -82q4 -27 -13.5 -43t-61.5 -16v-60q0 3 151 3l125 -3v60q-24 0 -35.5 11t-22.5 34t-111 308t-98 287q0 -3 -74 -3zM348 600l49 -140 q49 -139 58 -178q0 -3 -106 -3l-103 3q6 32 54 175z" />
<glyph unicode="B" horiz-adv-x="651" d="M324 700q0 -3 -142 -3l-127 3v-60q44 0 65 -8t24.5 -17.5t2.5 -30.5q3 0 3 -204l-3 -221q0 -56 -19.5 -77.5t-77.5 -21.5v-60l60 2q60 2 97 2q31 0 90 -2t110 -2q60 0 104.5 18.5t67 48.5t32.5 62t10 66q0 78 -51.5 125t-124.5 56v5q18 5 34 13t40.5 24t39.5 44.5 t15 64.5q0 85 -65.5 129t-184.5 44zM264 630h46q57 0 96 -26t39 -86q0 -53 -41 -84t-111 -31l-29 -1v228zM266 148l-2 184h43q93 0 135 -40t42 -107q0 -49 -33 -82t-86 -33h-24q-41 0 -58 24.5t-17 53.5z" />
<glyph unicode="C" horiz-adv-x="645" d="M400 718q-61 0 -120.5 -21.5t-112 -64t-85 -114.5t-32.5 -163q1 -166 88.5 -269.5t244.5 -103.5q55 0 104.5 10t77.5 22.5t44 22.5l16 10v130q-38 0 -38 -1l-9 -16q-9 -16 -28 -36t-59 -36t-91 -16q-105 0 -161 81t-56 205q0 123 58 198.5t154 75.5q119 0 127 -102v-15 h98v145l-23 14q-23 15 -78 29.5t-119 14.5z" />
<glyph unicode="D" horiz-adv-x="736" d="M57 700v-59q44 0 64.5 -7.5t24 -18t3.5 -35.5q3 0 3 -200q0 -58 -1.5 -137t-1.5 -89q0 -57 -21 -75.5t-78 -18.5v-60l154 3q18 0 73 -1.5t126 -1.5q138 0 220.5 92t82.5 248q0 167 -108 273q-47 46 -119 67t-146 20q-26 0 -76 -0.5t-71 -0.5zM269 627q0 3 59 3 q113 0 179.5 -75t66.5 -218q0 -133 -47 -199.5t-149 -66.5l-33 -1q-76 0 -76 97q-3 0 -3 196q0 262 3 264z" />
<glyph unicode="E" horiz-adv-x="644" d="M55 700v-60q64 -1 79 -14.5t15 -51.5q3 -58 3 -217q0 -85 -3 -199q0 -57 -22 -77.5t-77 -20.5v-60l58 2q58 2 101 2l400 -4v170h-79q0 -90 -99 -90h-161q-2 0 -2 228h90q17 0 26.5 -3t13 -13t4 -15.5t0.5 -24.5h60v187h-62q0 -19 -0.5 -23t-2.5 -15.5t-6.5 -14t-13 -5.5 t-21.5 -3h-88l2 242h141q33 0 54 -7.5t29.5 -23t11 -28t2.5 -32.5h71v171l-147 -2q-147 -2 -219 -2z" />
<glyph unicode="F" horiz-adv-x="596" d="M57 700v-60q33 0 52.5 -3.5t28 -13.5t10 -19.5t1.5 -29.5t1.5 -85t1.5 -109t-1.5 -122.5t-1.5 -99.5q0 -58 -23 -78t-76 -20v-60l157 3l171 -3v60q-77 0 -91.5 9.5t-16.5 58.5q-2 0 -2 171h78q16 0 25.5 -3t13.5 -12t5 -16.5t1 -24.5h58v187h-60q0 -18 -1 -26.5t-5 -18 t-13.5 -13t-26.5 -3.5h-75l2 251h139q57 -1 77.5 -23.5t20.5 -66.5h69v170l-131 -2q-131 -2 -183 -2z" />
<glyph unicode="G" horiz-adv-x="716" d="M415 718q-44 0 -91 -12t-96.5 -40.5t-88.5 -69.5t-64 -106.5t-25 -144.5t21.5 -142.5t56 -104t81 -67.5t93 -38t94.5 -11q64 0 124 16t88 32l28 17v183q0 13 0.5 18.5t4.5 11.5t12 8t23 2v65q0 -3 -111 -3l-166 3v-65h79q31 0 39 -6.5t8 -27.5v-138l-13 -8 q-13 -7 -43.5 -14.5t-66.5 -7.5q-219 0 -219 291q0 122 60.5 197.5t159.5 75.5q69 0 101 -28t32 -74v-15h100v145l-22 14q-22 15 -77.5 29.5t-121.5 14.5z" />
<glyph unicode="H" horiz-adv-x="815" d="M50 700v-60q58 0 75.5 -11.5t17.5 -38.5l3 -210q0 -37 -1.5 -121.5t-1.5 -106.5q0 -52 -22 -72t-71 -20v-60q0 3 151 3l144 -3v60q-43 0 -61.5 6t-21 14t-2.5 31l-2 214q0 3 149 3l151 -3l-2 -176q0 -48 -18 -68.5t-68 -20.5v-60l158 3l137 -3v60q-62 0 -78 10t-16 36 l-3 252l3 197q0 44 21 64.5t73 20.5v60q0 -3 -154 -3l-141 3v-60q57 0 71.5 -11.5t14.5 -41.5l2 -180l-151 -2l-149 2q2 0 2 148q0 47 18 66t67 19v60q0 -3 -149 -3z" />
<glyph unicode="I" horiz-adv-x="410" d="M55 700v-60q44 0 64.5 -6.5t24.5 -15.5t4 -28l2 -73q2 -73 1 -137q0 -42 -1.5 -127t-1.5 -104q0 -46 -22.5 -67.5t-75.5 -21.5v-60l160 4l150 -4v60q-60 0 -78 10.5t-18 34.5q-3 0 -3 275q0 64 1.5 115t1.5 56q0 47 18 68t73 21v60l-62 -2q-62 -2 -88 -2z" />
<glyph unicode="J" horiz-adv-x="405" d="M365 640v60q0 -3 -154 -3l-163 3v-60q76 0 95 -14.5t19 -54.5q3 0 3 -191l-3 -454q-2 -53 -16 -72q-18 -26 -61 -26q-26 0 -47 8t-28 16l-8 9h-22v-77l13 -12q13 -12 46 -24t74 -12q87 0 134 69q37 54 37 168l-4 122q-3 122 -3 285l3 166q1 50 19.5 72t65.5 22z" />
<glyph unicode="K" horiz-adv-x="783" d="M51 700v-60q33 0 52 -3.5t27 -14t10 -18.5t2 -28l2 -72q2 -73 2 -124l-4 -221q0 -56 -18 -77.5t-74 -21.5v-60q0 3 146 3l143 -3v60q-55 0 -66 10t-11 48v143q0 6 42 37l43 32l42 -50q42 -51 85 -109t46 -73q3 -21 -12 -29.5t-44 -8.5v-60q0 3 160 3l139 -3v60 q-46 0 -79 39l-120 149q-119 150 -119 154l213 205l23 18q9 7 21.5 11t31.5 4v60q0 -3 -131 -3l-131 3v-60q62 0 62 -27q0 -24 -127 -134.5t-145 -111.5v198q0 42 20.5 58.5t67.5 16.5v60q0 -3 -145 -3z" />
<glyph unicode="L" horiz-adv-x="581" d="M202 697l-160 3v-1v-1v-1v-1v-1v-1v-1v-1v-1v-1v-1v-1v-1v-1v-1v-2v-1v-1v-2v-1v-1v-2v-1v-2v-1v-2v-1v-2v-2v-1v-2v-2v-2v-1v-2v-2v-2v-2v-8q63 0 78 -13t15 -52q3 0 3 -195l-3 -221q0 -59 -24 -79t-76 -20v-60l183 4l353 -3v170h-80q-1 -50 -23 -70.5t-75 -20.5h-138 q-3 0 -3 300l3 177q0 47 22 65t66 18v60q0 -3 -141 -3z" />
<glyph unicode="M" horiz-adv-x="968" d="M62 700v-60q32 0 50.5 -3.5t26 -15t9 -21t1.5 -31.5l-25 -401q-5 -57 -21.5 -82.5t-62.5 -25.5v-60q0 3 122 3l131 -3v60q-51 0 -64.5 12.5t-13.5 49.5l5 146q6 145 15 281q35 -91 94.5 -278t86.5 -261h114q110 387 166 539q30 -317 25 -405q-2 -43 -26.5 -63.5 t-61.5 -20.5v-60q0 3 162 3l133 -3v60q-53 0 -66.5 14.5t-16.5 65.5l-17 188q-18 189 -18 241q0 33 22.5 52t61.5 19v60q0 -3 -121 -3l-120 3q-36 -98 -98 -309.5t-70 -233.5q-7 30 -74 229.5t-117 313.5q-34 -1 -110 -3z" />
<glyph unicode="N" horiz-adv-x="817" d="M646 697l-128 3v-1v-1v-1v-1v-1v-1v-1v-1v-1v-2v-1v-1v-1v-1v-1v-2v-1v-1v-2v-1v-1v-2v-1v-2v-1v-2v-1v-2v-2v-1v-2v-2v-2v-1v-2v-2v-2v-9q31 0 49.5 -4t25.5 -15t8.5 -18.5t1.5 -26.5l3 -196q0 -116 -3 -236q-12 19 -160.5 279.5t-178.5 276.5q0 -3 -102 -3l-107 3v-60 q28 0 44 -3.5t22.5 -15t7.5 -20.5t1 -32q3 0 3 -189q0 -55 -1.5 -140t-1.5 -100q0 -42 -19 -61t-61 -19v-60q0 3 139 3l137 -3v60q-59 0 -73 13.5t-14 59.5l-4 247q-1 83 4 168q38 -51 172.5 -288t157.5 -260q0 2 77 2l61 -2q-3 0 -3 380q0 37 1.5 100t1.5 68q0 47 20 69.5 t65 22.5v60q0 -3 -146 -3z" />
<glyph unicode="O" horiz-adv-x="779" d="M384 718q-137 0 -235.5 -101t-98.5 -266q0 -102 36.5 -184t116 -133.5t191.5 -51.5q104 0 181.5 54t115.5 140.5t38 190.5q0 155 -90.5 253t-254.5 98zM380 636q98 0 155 -79t57 -207q0 -54 -9 -101t-30 -89.5t-60 -67t-93 -24.5q-59 0 -103 26.5t-68 71t-35 92.5 t-11 100t10.5 99t32.5 88.5t62 66t92 24.5z" />
<glyph unicode="P" horiz-adv-x="600" d="M54 700v-60q28 0 44 -4t22.5 -15t8 -20t1.5 -29q3 0 3 -192q0 -54 -1.5 -140.5t-1.5 -99.5q0 -80 -80 -80v-60l143 3l160 -3v60q-64 0 -81 16t-17 55l-2 157l113 1q96 0 160 56t64 141q0 99 -71.5 156.5t-184.5 57.5q-37 0 -85 -1.5t-74 -1.5zM253 361l2 268h56 q52 0 85 -21.5t44 -47.5t13 -48l2 -21q0 -61 -34.5 -95.5t-91.5 -34.5h-76z" />
<glyph unicode="Q" horiz-adv-x="780" d="M400 68q53 0 91.5 23.5t60 64.5t31 89t9.5 105q0 128 -57 207t-155 79q-52 0 -92 -24.5t-62 -66t-32.5 -88.5t-10.5 -99t11 -100t35 -92.5t68 -71t103 -26.5zM573 32l108 -105q6 -7 2.5 -14t-16.5 -7l-80 -1q-29 0 -39 16l-59 77q-51 -16 -95 -16q-112 0 -191.5 51.5 t-116 133.5t-36.5 184q0 165 98.5 266t235.5 101q164 0 254.5 -98t90.5 -253q0 -101 -42.5 -192t-113.5 -143z" />
<glyph unicode="R" horiz-adv-x="728" d="M58 700v-60q29 0 46 -3.5t24.5 -14t9.5 -19t2 -26.5q3 0 3 -197l-3 -231q0 -45 -20.5 -67t-69.5 -22v-60q0 3 139 3l151 -3v60q-51 0 -63.5 13.5t-12.5 49.5l-2 186q59 0 126.5 -76t80.5 -129q10 -44 -37 -44v-60q0 3 125 3l151 -3v60q-55 0 -74 30l-111 167 q-27 41 -99 63v4q48 9 88.5 27.5t73 59t32.5 95.5q0 102 -75.5 148t-202.5 46q-12 0 -72 -1.5t-85 -1.5q-21 0 -45 0.5t-40 1t-28 1.5h-12zM264 630h53q72 0 119 -30t47 -97q0 -56 -53.5 -93t-133.5 -37h-34z" />
<glyph unicode="S" horiz-adv-x="597" d="M511 660l-25 14q-24 15 -77 29.5t-111 14.5q-107 0 -171.5 -54.5t-64.5 -137.5q0 -68 39 -111.5t109 -79.5q19 -10 56.5 -27.5t57 -28t43.5 -27.5t34.5 -37t10.5 -44q0 -45 -34 -73t-83 -28q-74 0 -110 29.5t-36 78.5l-1 27h-98v-149l32 -18q33 -19 93.5 -37.5 t115.5 -18.5q116 0 186 57t70 148q0 42 -14.5 75t-45.5 58.5t-55.5 40t-68.5 35.5l-51 23q-36 16 -50.5 24.5t-36 23.5t-30 33t-8.5 40q0 32 28.5 64t85.5 32q103 0 113 -77l-1 -33h98v134z" />
<glyph unicode="T" horiz-adv-x="653" d="M633 700q0 -3 -308 -3l-305 3v-183h81q0 58 36.5 80.5t130.5 22.5v-240l-3 -254q0 -23 -5 -35t-27.5 -21.5t-67.5 -9.5v-60l163 3l157 -3v1v1v1v1v1v1v1v1v1v1v1v1v1v1v2v1v1v2v1v1v2v1v2v1v2v1v2v2v1v2v2v2v1v2v2v2v2v9q-63 0 -80 14.5t-17 51.5q-3 0 -3 254v240 q94 0 131 -21.5t37 -81.5h80v183z" />
<glyph unicode="U" horiz-adv-x="789" d="M171 697l-141 3v-61q28 0 45 -3.5t24.5 -12t9 -16t1.5 -21.5q3 0 3 -206q0 -44 -1.5 -86.5t-1.5 -67.5q0 -45 14.5 -86t46.5 -77.5t91.5 -58.5t139.5 -22q76 0 131 23t85 64t43.5 90.5t13.5 109.5l-3 111l3 166q0 93 84 93v61q0 -3 -136 -3l-150 3v-1v-1v-1v-1v-1v-1v-1 v-1v-1v-1v-1v-1v-2v-1v-1v-1v-1v-2v-1v-1v-2v-1v-2v-1v-1v-2v-2v-1v-2v-1v-2v-2v-1v-2v-2v-1v-2v-2v-2v-8q41 0 61.5 -9t24.5 -20.5t5 -34.5q3 0 3 -195v-103q0 -204 -159 -204q-93 0 -133.5 56t-40.5 164l3 253q0 50 22 71.5t69 21.5v61q0 -3 -157 -3z" />
<glyph unicode="V" horiz-adv-x="737" d="M10 700v-60q21 0 33 -7t16 -17t10 -21l239 -595q0 3 66 3q21 1 46 -1l25 -2l109 286q110 287 111 287q17 42 29 54.5t33 12.5v60q0 -3 -99 -3l-153 3v-60q54 0 68.5 -14.5t7.5 -46.5q-11 -60 -73 -231t-87 -220q-29 52 -92 215.5t-76 223.5q-17 73 69 73v60q0 -3 -168 -3 z" />
<glyph unicode="W" horiz-adv-x="1073" d="M10 700v-60q17 0 28.5 -3.5t18 -13t8 -12.5t6.5 -16l233 -595q0 2 62 2l61 -2l137 267l111 -267q0 2 67 2l59 -2l204 588q19 52 62 52v60q0 -2 -122 -2l-137 2v-1v-1v-1v-1v-1v-1v-1v-1v-1v-2v-1v-1v-1v-1v-1v-2v-1v-1v-2v-1v-1v-2v-1v-2v-1v-2v-1v-2v-2v-1v-2v-2v-2v-1 v-2v-2v-2v-9q49 0 69 -12.5t15 -38.5q-8 -46 -62 -214.5t-85 -245.5l-52 131l-51 132q-23 61 -39.5 114.5t-19.5 79.5q-3 32 19.5 43t61.5 11v60q0 -2 -160 -2l-131 2v-60q51 0 70 -48q10 -25 39 -105t30 -93q0 -21 -53.5 -133.5t-67.5 -131.5q-36 76 -99.5 237.5 t-71.5 207.5q-7 35 6.5 50.5t46.5 15.5v60q0 -2 -133 -2q-25 0 -77.5 1.5t-52.5 0.5z" />
<glyph unicode="X" horiz-adv-x="767" d="M157 697l-135 3v-60q28 0 47 -7.5t40 -34.5l191 -258q0 -10 -81 -104l-129 -147l-8 -7q-7 -8 -24.5 -15t-37.5 -7v-60l44 2q44 2 68 2l157 -4v60q-60 0 -57 36q1 17 62.5 92t69.5 75t65 -73.5t60 -91.5q4 -19 -9.5 -28.5t-45.5 -9.5v-60l157 4l158 -4v60q-40 0 -71 31 q-53 53 -128.5 144t-97.5 125l193 240q34 40 85 40v60q0 -3 -138 -3l-130 3v-60q35 0 47 -7.5t10 -23.5q-2 -24 -61.5 -97t-68.5 -73q-7 0 -60.5 72.5t-58.5 91.5q-5 20 9 28.5t42 8.5v60q0 -3 -164 -3z" />
<glyph unicode="Y" horiz-adv-x="690" d="M10 700v-60q19 0 30.5 -8.5t30.5 -36.5l99 -161q98 -160 108 -180q11 -21 12 -38l2 -16l-1 -81q0 -36 -13.5 -47.5t-69.5 -11.5l1 -60q0 4 155 4l139 -4v60q-41 0 -58.5 6.5t-20.5 16.5t-3 36v98q0 23 10 50q28 66 205 350q11 14 18.5 18t25.5 5v60q0 -3 -106 -3l-133 3 v-60q34 0 51.5 -13t9.5 -42q-8 -30 -60.5 -116.5t-78.5 -119.5q-12 11 -76 113t-69 125q-6 27 10 40t44 13v60q0 -3 -143 -3z" />
<glyph unicode="Z" horiz-adv-x="637" d="M60 700v-176h82q0 46 22 66t78 20h223q0 -29 -44 -82t-136 -144t-128 -130q-117 -128 -117 -164v-90l256 3l301 -3v180h-81q0 -48 -21.5 -69t-80.5 -21h-222q0 26 51 85t135.5 147t128.5 143q80 100 80 145v90q0 -3 -297 -3z" />
<glyph unicode="[" horiz-adv-x="250" />
<glyph unicode="\" horiz-adv-x="481" />
<glyph unicode="]" horiz-adv-x="250" />
<glyph unicode="^" horiz-adv-x="470" />
<glyph unicode="_" horiz-adv-x="500" d="M0 -160v60h500v-60h-500z" />
<glyph unicode="`" horiz-adv-x="268" />
<glyph unicode="a" horiz-adv-x="504" d="M230 464q-48 0 -89 -13.5t-59 -26.5l-17 -14v-88h80q0 41 22 56.5t68 15.5q39 0 52.5 -18t13.5 -54v-41l-60 -11q-60 -10 -107 -29q-60 -24 -79.5 -58t-19.5 -76t37 -81.5t105 -39.5q46 0 79 12t47.5 23.5t16.5 11.5l39 -43h20l31 5q32 5 69 5v60q-19 0 -28 0.5t-19.5 4 t-14 11t-3.5 20.5v228q0 46 -16 75.5t-45.5 42.5t-57 17.5t-65.5 4.5zM301 219v-94q0 -36 -21.5 -52.5t-52.5 -16.5q-34 0 -54.5 16.5t-20.5 50.5q0 31 23.5 52.5t51 29.5t51.5 11z" />
<glyph unicode="b" horiz-adv-x="534" d="M15 755v-55h15q8 0 14.5 -0.5t12.5 -2t11 -5t8 -8t5 -12.5t2 -18q3 0 3 -274l-3 -380h50l36 50q2 0 20.5 -16t55 -32t81.5 -16q85 0 136.5 64.5t51.5 183.5q0 61 -19.5 108t-49.5 72t-61.5 37.5t-61.5 12.5q-33 0 -63 -9t-48 -17.5t-21 -8.5l2 336h-29l-45 -5 q-45 -5 -103 -5zM188 195l4 172l29 4q29 4 58 4t51 -9.5t34.5 -24t20 -35t10 -38t2.5 -37.5q0 -159 -99 -159q-59 0 -84.5 35.5t-25.5 87.5z" />
<glyph unicode="c" horiz-adv-x="469" d="M275 464q-101 0 -170.5 -64.5t-69.5 -186.5q0 -59 20.5 -104.5t54 -71t71 -38.5t76.5 -13q51 0 96.5 12.5t65.5 24.5l20 12v86h-26l-16 -15q-16 -14 -50.5 -28.5t-71.5 -14.5q-61 0 -94.5 42t-33.5 118q0 26 5.5 52.5t18 53.5t37.5 43.5t60 16.5q29 0 48.5 -14t26 -31.5 t7.5 -31.5l2 -14h87v108l-19 14q-19 15 -60 29.5t-85 14.5z" />
<glyph unicode="d" horiz-adv-x="561" d="M287 755v-55q20 0 29.5 -1t22 -5.5t18 -15.5t5.5 -30v-218q-2 0 -19.5 8.5t-47.5 17t-64 8.5q-75 0 -133 -60.5t-58 -170.5q0 -124 53.5 -185.5t132.5 -61.5q43 0 79.5 16t54.5 32l19 16l39 -60h18l32 5q33 5 73 5v60q-21 0 -31 0.5t-22 4t-16.5 11.5t-4.5 22 q-3 0 -3 282l3 385h-26l-43 -5q-44 -5 -111 -5zM362 369l2 -176q1 -50 -27 -85t-82 -35q-102 0 -102 158q0 80 34.5 113t87.5 33q19 0 41.5 -2.5t34.5 -4.5t11 -1z" />
<glyph unicode="e" horiz-adv-x="504" d="M464 211v35q0 40 -8.5 75t-29 69t-62 54t-100.5 20q-28 0 -57 -7.5t-60.5 -26t-56 -45.5t-40 -71.5t-15.5 -98.5q0 -102 54.5 -165.5t168.5 -63.5q51 0 97 12t66 24l20 12l1 81h-28l-15 -13q-15 -13 -48 -26t-69 -13q-60 0 -95 34t-39 104v10h316zM352 279h-198 q0 10 5 27t15.5 38t33 35.5t52.5 14.5q35 0 58 -22.5t29.5 -47t4.5 -45.5z" />
<glyph unicode="f" horiz-adv-x="383" d="M393 700l-13 10q-14 10 -41.5 19.5t-54.5 9.5q-82 0 -127 -51.5t-45 -121.5l2 -116h-89v-71h89l-2 -245q-1 -41 -20.5 -57.5t-66.5 -16.5v-60q27 0 76 2t66 2t67 -2t74 -2v60q-61 0 -75.5 9.5t-14.5 36.5l-2 273h102v71h-102q2 0 2 110q0 98 74 98q22 0 38 -5.5 t29.5 -15.5t16.5 -11h16v25v33z" />
<glyph unicode="g" horiz-adv-x="507" d="M436 450l-54 -26q-2 0 -54 20t-102 20q-76 0 -133.5 -62.5t-57.5 -169.5q0 -48 9.5 -90t30 -78t58 -57t88.5 -21q30 0 57.5 9.5t43.5 21t26 21.5l9 9v-92q0 -72 -37 -103.5t-95 -31.5q-37 0 -67.5 10t-42.5 20l-12 11h-20v-77l14 -12q14 -12 50 -24t80 -12q56 0 99.5 15 t68.5 38t40.5 54.5t21 59.5t5.5 57q0 17 -1.5 123.5t-1.5 136.5l3 230h-26zM355 367q2 0 2 -171q0 -63 -31 -93t-76 -30q-104 0 -102 157q2 144 123 147q11 0 22.5 -0.5t20.5 -1.5t17 -3l13 -2q5 -1 8 -2z" />
<glyph unicode="h" horiz-adv-x="597" d="M203 410l2 355h-23l-47 -5q-47 -5 -105 -5v-55q22 0 33 -1.5t22 -10.5t11 -28q3 0 3 -280q0 -62 -1.5 -151t-1.5 -99q0 -40 -14.5 -55t-51.5 -15v-60l129 3l104 -3v60q-40 0 -49 8t-9 29l-2 254l37 9q37 8 71 8q55 0 70.5 -29.5t15.5 -100.5v-109q0 -39 -17 -54t-54 -15 v-60l125 3l116 -3v60q-37 0 -47 6t-10 23v185q0 186 -156 186q-38 0 -76 -12.5t-56 -25.5z" />
<glyph unicode="i" horiz-adv-x="348" d="M35 450v-55q16 0 24.5 -0.5t21.5 -2.5t19.5 -6.5t12 -14t5.5 -22.5v-230q0 -59 -88 -59v-60l63 2q63 2 84 2l141 -4v60q-64 0 -79 8t-15 33l-1 245l-1 114h-30l-43 -5q-43 -5 -114 -5zM149 700q-29 0 -48.5 -16.5t-19.5 -51.5q0 -37 20 -55.5t53 -18.5q31 0 50 21.5 t19 54.5q0 32 -21.5 49t-52.5 17z" />
<glyph unicode="j" horiz-adv-x="279" d="M134 700q-36 0 -53 -20t-17 -47q0 -25 20 -46.5t54 -21.5t51 21t17 51q0 28 -19 45.5t-53 17.5zM219 460h-30l-11 -2q-12 -3 -53 -5.5t-99 -2.5v-1v-1v-1v-1v-1v-1v-1v-1v-1v-1v-1v-1v-2v-1v-1v-1v-2v-1v-1v-2v-1v-2v-1v-2v-2v-1v-2v-1v-2v-2v-2v-1v-2v-2v-9 q18 0 27 -0.5t22.5 -2.5t20 -7t11.5 -14t5 -23q3 0 3 -148v-292q0 -49 -15.5 -70.5t-49.5 -21.5q-19 0 -33 5.5t-19 10.5l-5 6h-18v-71l9 -7q10 -8 32.5 -16t48.5 -8q76 0 120 50q34 39 34 125l-3 289z" />
<glyph unicode="k" horiz-adv-x="602" d="M35 755v-55q18 0 27.5 -1t21.5 -6t17 -16t5 -30q0 -3 1.5 -109t1.5 -158q0 -30 -0.5 -76.5t-1 -84.5t-1.5 -67v-29q0 -35 -18 -49t-58 -14v-60q0 3 119 3l116 -3v60q-33 0 -42 6.5t-9 24.5v79l82 59l75 -125q21 -44 -35 -44v-60q0 3 130 3l116 -3v60q-40 1 -63 26 q-52 58 -137 203q27 23 51.5 47t56 41.5t59.5 17.5h19v55q0 -3 -98 -3l-157 3v-55h24q32 0 32 -17q0 -16 -73 -74t-82 -58q-3 0 -3 134l3 385h-24l-51 -5q-51 -5 -104 -5z" />
<glyph unicode="l" horiz-adv-x="343" d="M36 755v-55q23 0 33 -1t24 -6t19.5 -17.5t5.5 -34.5q2 -21 2 -124t-1 -232t-1 -146q0 -79 -93 -79v-60l155 4l138 -4v60q-62 0 -76.5 10.5t-14.5 38.5l-3 271l2 385h-27l-45 -5q-46 -5 -118 -5z" />
<glyph unicode="m" horiz-adv-x="882" d="M192 416l-22 44l-37 -5q-37 -5 -103 -5v-55q16 0 25 -1.5t19.5 -7t15.5 -19t5 -35.5l2 -112l-2 -97q-1 -30 -14 -46.5t-51 -16.5v-60q0 3 103 3l130 -3v60q-28 0 -40.5 5.5t-14 9.5t-3.5 20q-2 0 -2 125l2 140l25 8q24 7 62 7q58 0 82 -28t24 -105v-95q0 -87 -75 -87v-60 l108 3l131 -3l-1 60q-28 0 -41.5 4.5t-14.5 7t-3 14.5l-2 53q-2 53 -2 92l-1 125l27 10q28 9 64 9q33 0 54.5 -10.5t31 -31t12.5 -40.5t3 -50v-96q0 -50 -17 -68.5t-58 -18.5v-60q0 3 126 3l112 -3v60q-40 0 -48 4.5t-8 21.5v188q2 88 -44.5 139t-128.5 51q-36 0 -77 -12.5 t-64 -25.5l-22 -12l-12 12q-13 13 -44.5 25.5t-68.5 12.5q-32 0 -67.5 -12t-55.5 -24z" />
<glyph unicode="n" horiz-adv-x="606" d="M212 367q-2 0 -2 -134l1 -134q0 -16 2 -22.5t15.5 -11.5t42.5 -5v-60q0 3 -116 3l-115 -3v60q62 0 64 70l3 94l-3 122q0 28 -14 38.5t-45 10.5v55q46 0 75 2.5t41 5t18 2.5l22 -38q1 0 18.5 10.5t49.5 21t69 10.5q71 0 126.5 -48.5t55.5 -142.5v-178q0 -16 2 -22 t14.5 -10.5t39.5 -4.5v-58q0 3 -125 3l-121 -3v60q84 0 84 95v83q0 79 -26.5 108.5t-85.5 29.5q-38 0 -64 -4z" />
<glyph unicode="o" horiz-adv-x="519" d="M259 464q-41 0 -79 -14t-71.5 -42.5t-53.5 -78.5t-20 -114q0 -229 225 -229q98 0 161 67t63 189q0 66 -20.5 112t-55.5 69t-71 32t-78 9zM258 394q54 0 85 -36.5t31 -109.5q0 -190 -109 -190q-118 0 -118 162q0 87 26 130.5t85 43.5z" />
<glyph unicode="p" horiz-adv-x="570" d="M32 450v-55q20 0 30 -1.5t23 -6.5t18.5 -18.5t5.5 -35.5q3 0 3 -163q0 -61 -1.5 -161.5t-1.5 -116.5q0 -43 -19.5 -62.5t-64.5 -19.5v-60q0 4 141 4l136 -4v60q-40 0 -59 7t-22 15t-3 28v1v1v1v1v1v1v1v1v1v1v1v1v1v1v1v1v1v1v1v1v1v1v1v1v1v1v1v1v1v1v1v1v1v1v1v1v1v1v1 v2v1v1v1v1v1v1v2v1v1v1v2v1v1v1v2v1v1v2v1v1v2v1v1v2v1v1v2v1v2v1v1v2v1v2v1v2v1v2v1v2v1v2v1v2v1v2v1v2v1v2v2v1v2v1v2v2v1v2v2v1v2v2v1v2v2v1v2v2v1v2v2v2v1v2v2v2v2v1v2v2v2v2v1v2v2v2v2v2v1v2v9q0 -2 14.5 -16t47 -29.5t69.5 -15.5q85 0 136.5 64t51.5 181 q0 105 -55.5 169t-132.5 64q-51 0 -105 -20l-53 -20l-29 36l-38 -5q-38 -5 -92 -5zM216 200l2 168l32 4q33 3 55 3q120 0 120 -144q0 -159 -99 -159q-48 0 -79 34.5t-31 93.5z" />
<glyph unicode="q" horiz-adv-x="554" d="M466 450h-28l-54 -26l-54 20q-53 20 -103 20q-28 0 -58.5 -12t-61.5 -37t-50.5 -72.5t-19.5 -110.5q0 -123 54 -184.5t133 -61.5q38 0 71 15t47 31l15 15v-152q0 -85 -94 -85v-60q0 3 142 3l139 -3v60q-38 0 -55 6.5t-20 14.5t-3 29q0 32 -3 290zM357 368l3 -174 q1 -58 -28.5 -89.5t-77.5 -31.5q-103 0 -103 157q0 145 119 145q31 0 59 -3z" />
<glyph unicode="r" horiz-adv-x="431" d="M30 450v-55q28 0 41.5 -2t24 -13t10.5 -33q2 0 2 -127l-2 -84q2 -76 -76 -76v-60l143 3l126 -3v60q-41 0 -57.5 5.5t-19.5 14t-4 34.5v246l19 10q19 9 41 9q49 0 49 -41v-19h89v125l-30 10q-30 10 -70 10q-29 0 -59 -12t-48 -24.5t-19 -12.5l-28 45l-42 -5q-42 -5 -90 -5 z" />
<glyph unicode="s" horiz-adv-x="433" d="M363 422l-16 10q-16 11 -55 21.5t-86 10.5q-69 0 -117.5 -36.5t-48.5 -97.5q0 -43 26 -72t62.5 -43t73 -25.5t62.5 -29.5t26 -45q0 -26 -23.5 -42t-53.5 -16q-43 0 -68.5 22.5t-25.5 67.5h-77v-105l21 -14q21 -14 62.5 -28t82.5 -14q91 0 138 39.5t47 103.5q0 32 -13 56 t-37 39.5t-47 24.5t-55.5 20t-48.5 18q-50 22 -50 57q0 25 21.5 40.5t52.5 15.5q39 0 56 -16.5t17 -53.5h74v92z" />
<glyph unicode="t" horiz-adv-x="397" d="M224 576h-85q0 -82 -24.5 -109t-94.5 -27v-60h91v-250q0 -60 40 -102t103 -42q38 0 68.5 11.5t42.5 22.5l12 12v57h-18l-17 -8q-18 -8 -37 -8q-51 0 -67 26.5t-16 100.5v180h146v70h-145z" />
<glyph unicode="u" horiz-adv-x="581" d="M25 450v-55q20 0 30 -1.5t19 -12.5t9 -34v-189q0 -82 52.5 -127t123.5 -45q37 0 73.5 17t53.5 33l18 17l46 -63l39 5q39 5 82 5v55q-75 0 -75 55q-2 0 -2 155l2 195h-21q-83 -10 -151 -10v-55q26 0 38 -2t20.5 -12.5t8.5 -32.5v-179q0 -43 -26.5 -69.5t-67.5 -26.5 q-63 0 -82 34t-19 122l3 231h-25q-90 -10 -149 -10z" />
<glyph unicode="v" horiz-adv-x="525" d="M10 450v-60q17 0 24.5 -6t15.5 -22l165 -362q0 2 58 2l52 -2l151 358q9 20 16.5 26t22.5 6v60q0 -3 -88 -3l-104 3v-60q35 0 46 -8.5t6 -31.5q-7 -37 -38.5 -119.5t-54.5 -131.5q-65 140 -103 247q-9 24 3 34t42 10v60q0 -3 -116 -3z" />
<glyph unicode="w" horiz-adv-x="785" d="M10 450v-60q25 0 32.5 -5t17.5 -25l155 -360q0 2 46 2l55 -2l43 84q43 84 46 84l70 -168q0 2 52 2l53 -2l152 356q11 21 18.5 27.5t24.5 6.5v60q0 -3 -89 -3l-97 3v-60q35 0 44 -13t0 -39q-6 -22 -48 -131t-44 -109q-3 -1 -23 58l-38 116q-18 57 -22 72q-13 46 43 46v60 q0 -3 -113 -3l-91 3v-60q17 0 25.5 -2.5t11 -5.5t7.5 -12q1 -1 3 -6l4 -13l6 -16l6 -18q3 -9 5.5 -17.5t4 -15t1.5 -10.5t-1 -4q0 -8 -40.5 -88.5t-44.5 -80.5q-2 0 -18 38l-33 83l-33 84l-15 39q-9 24 2.5 34.5t31.5 10.5v60q0 -3 -96 -3z" />
<glyph unicode="x" horiz-adv-x="590" d="M44 450v-60q46 0 70 -28l62 -68q62 -68 63 -76q0 -5 -61 -66l-62 -61q-23 -18 -40 -24.5t-46 -6.5v-60q0 3 83 3l125 -3v60q-30 0 -30 18q0 11 40 49l39 38l35 -35q34 -36 35 -50q1 -11 -9 -15.5t-23 -4.5v-60q0 3 141 3l94 -3v60q-38 0 -58 20l-70 74q-69 75 -69 79 t64.5 69t66.5 64q30 22 65 24v60q0 -3 -83 -3l-116 3v-60q35 0 35 -23q0 -12 -37 -48l-38 -36l-36 39q-36 39 -36 50q0 18 30 18v60q0 -3 -111 -3z" />
<glyph unicode="y" horiz-adv-x="562" d="M10 450v-60q22 0 31.5 -4.5t21.5 -23.5l95 -174q95 -173 96 -186q-10 -39 -16.5 -60t-21.5 -55.5t-37.5 -51.5t-52.5 -18q-22 0 -39 5t-23 10l-5 6h-18v-71l9 -7q10 -8 33.5 -16t51.5 -8q118 0 163 114l59 148l68 167q68 167 84 196q10 19 20.5 24t29.5 5v60 q0 -3 -102 -3l-104 3v-60q27 0 39.5 -7.5t12.5 -26.5q0 -27 -42.5 -133t-46.5 -106t-61 107t-57 131q0 35 43 35v60q0 -3 -116 -3z" />
<glyph unicode="z" horiz-adv-x="485" d="M45 450v-135h67q0 65 42 65h166q0 -15 -68 -76l-136 -125q-69 -65 -71 -89v-90q0 3 190 3l205 -3v139h-66q0 -59 -49 -59h-156q0 12 65 72l132 125q65 65 65 88v85q0 -3 -196 -3z" />
<glyph unicode="{" horiz-adv-x="310" d="M60 358v-14l10 -3q9 -3 21 -14t21.5 -42.5t9.5 -78.5v-12q0 -44 0.5 -65.5t1.5 -59t4.5 -56.5t9.5 -46.5t15.5 -41.5t22.5 -28.5t31.5 -20.5t42.5 -6q34 0 57 8l23 9v50h-12q-40 -14 -73 4q-20 18 -28.5 50.5t-8 61t3.5 80t3 79.5q0 44 -11.5 75t-24.5 43t-25 16l-11 4 l11 4q12 4 25 16t24.5 43t11.5 75q0 42 -2.5 100.5t-2 80.5t8 47.5t26.5 42.5q27 19 71 5h14v49l-23 9q-23 8 -57 8q-33 0 -57 -14t-37 -38.5t-21.5 -57t-10 -70t-2.5 -77.5t0 -79q0 -122 -62 -136z" />
<glyph unicode="|" horiz-adv-x="190" />
<glyph unicode="}" horiz-adv-x="310" d="M240 358v-14l-10 -3q-9 -3 -21 -14t-21.5 -42.5t-9.5 -78.5v-12q0 -44 -0.5 -65.5t-1.5 -59t-4.5 -56.5t-9.5 -46.5t-15.5 -41.5t-22.5 -28.5t-31.5 -20.5t-42.5 -6q-34 0 -57 8l-23 9v50h12q40 -14 73 4q20 18 28.5 50.5t8 61t-3.5 80t-3 79.5q0 44 11.5 75t24.5 43 t25 16l11 4l-11 4q-12 4 -25 16t-24.5 43t-11.5 75q0 42 2.5 100.5t2 80.5t-8 47.5t-26.5 42.5q-27 19 -71 5h-14v49l23 9q23 8 57 8q33 0 57 -14t37 -38.5t21.5 -57t10 -70t2.5 -77.5t0 -79q0 -122 62 -136z" />
<glyph unicode="~" horiz-adv-x="467" />
<glyph unicode="&#xa2;" horiz-adv-x="510" />
<glyph unicode="&#xa3;" horiz-adv-x="606" />
<glyph unicode="&#xa5;" horiz-adv-x="684" />
<glyph unicode="&#xa9;" horiz-adv-x="886" />
<glyph unicode="&#xad;" d="M40 190v80h250v-80h-250z" />
<glyph unicode="&#xae;" horiz-adv-x="886" />
<glyph unicode="&#xb4;" horiz-adv-x="268" />
<glyph unicode="&#x2000;" horiz-adv-x="415" />
<glyph unicode="&#x2001;" horiz-adv-x="830" />
<glyph unicode="&#x2002;" horiz-adv-x="415" />
<glyph unicode="&#x2003;" horiz-adv-x="830" />
<glyph unicode="&#x2004;" horiz-adv-x="276" />
<glyph unicode="&#x2005;" horiz-adv-x="207" />
<glyph unicode="&#x2006;" horiz-adv-x="138" />
<glyph unicode="&#x2007;" horiz-adv-x="138" />
<glyph unicode="&#x2008;" horiz-adv-x="103" />
<glyph unicode="&#x2009;" horiz-adv-x="166" />
<glyph unicode="&#x200a;" horiz-adv-x="46" />
<glyph unicode="&#x2010;" d="M40 190v80h250v-80h-250z" />
<glyph unicode="&#x2011;" d="M40 190v80h250v-80h-250z" />
<glyph unicode="&#x2013;" horiz-adv-x="500" />
<glyph unicode="&#x2014;" horiz-adv-x="1000" />
<glyph unicode="&#x2018;" horiz-adv-x="148" />
<glyph unicode="&#x2019;" horiz-adv-x="148" />
<glyph unicode="&#x201c;" horiz-adv-x="323" />
<glyph unicode="&#x201d;" horiz-adv-x="323" />
<glyph unicode="&#x2022;" horiz-adv-x="438" />
<glyph unicode="&#x2026;" horiz-adv-x="741" d="M101 118q-26 0 -43.5 -15t-17.5 -46q0 -33 18 -50t47 -17q28 0 45 19.5t17 49.5q0 28 -19 43.5t-47 15.5zM366 118q-26 0 -43.5 -15t-17.5 -46q0 -33 18 -50t47 -17q28 0 45 19.5t17 49.5q0 28 -19 43.5t-47 15.5zM635 118q-26 0 -43.5 -15t-17.5 -46q0 -33 18 -50 t47 -17q28 0 45 19.5t17 49.5q0 28 -19 43.5t-47 15.5z" />
<glyph unicode="&#x202f;" horiz-adv-x="166" />
<glyph unicode="&#x205f;" horiz-adv-x="207" />
<glyph unicode="&#x20ac;" horiz-adv-x="722" />
<glyph unicode="&#x2122;" horiz-adv-x="891" />
</font>
</defs>
</svg>
