<?xml version="1.0" standalone="no"?>
<!DOCTYPE svg PUBLIC "-//W3C//DTD SVG 1.1//EN" "http://www.w3.org/Graphics/SVG/1.1/DTD/svg11.dtd" >
<svg xmlns="http://www.w3.org/2000/svg">
<metadata>
This is a custom SVG webfont generated by Font Squirrel.
Copyright   : 40 I1995 Jos Buivenga
</metadata>
<defs>
<font id="webfontvAaju6CY" horiz-adv-x="921" >
<font-face units-per-em="2048" ascent="1638" descent="-410" />
<missing-glyph horiz-adv-x="614" />
<glyph unicode=" "  horiz-adv-x="614" />
<glyph unicode="&#x09;" horiz-adv-x="614" />
<glyph unicode="&#xa0;" horiz-adv-x="614" />
<glyph unicode="!" horiz-adv-x="516" d="M340 94q0 -49 -40 -87t-91 -38q-49 0 -84 33t-35 82q0 51 39 88t90 37q49 0 85 -33t36 -82zM516 1432q-70 -209 -98 -396l-113 -704h-123l82 704q20 174 92 375z" />
<glyph unicode="&#x22;" horiz-adv-x="585" d="M635 1321l-96 -324l-68 2l8 322l47 129h101zM352 1321l-96 -324l-68 2l9 322l47 129h100z" />
<glyph unicode="#" horiz-adv-x="1138" d="M666 571l39 312h-234l-39 -312h234zM768 1382h123l-45 -364h174l-12 -135h-181l-39 -312h154l-12 -135h-158l-53 -418h-123l53 418h-235l-47 -379h-123l47 379h-166l20 135h164l39 312h-145l20 135h142l51 403h123l-52 -403h236z" />
<glyph unicode="$" horiz-adv-x="880" d="M881 1219l-74 -111q-72 59 -182 78l-74 -467q133 -94 168 -135q74 -82 74 -197q0 -158 -101.5 -271.5t-257.5 -140.5l-20 -125h-92l18 119q-160 4 -295 88l66 121q133 -74 249 -80l76 484l-47 32q-41 29 -49 36t-41 33t-42 39t-30.5 39.5t-29 49.5t-14.5 53.5t-7 63.5 q0 162 107.5 271.5t269.5 119.5l18 113h93l-19 -115q142 -14 236 -98zM532 1188q-86 -14 -139 -77.5t-53 -152.5q0 -41 21.5 -76.5t42 -55t63.5 -50.5zM631 346q0 98 -111 178l-65 -411q76 25 126 90t50 143z" />
<glyph unicode="%" horiz-adv-x="1431" d="M518 1048.5q0 63.5 -44 107.5t-107.5 44t-107.5 -44t-44 -107.5t44 -107.5t107.5 -44t107.5 44t44 107.5zM987 1290l-455 -1290h-135l432 1196q-35 -18 -88 -27.5t-90 -9.5l-35 -2q23 -43 23 -108q0 -113 -80 -193t-192.5 -80t-192.5 80t-80 192.5t80 192.5t193 80 q80 0 145 -41q82 -23 143 -23q57 0 114.5 15.5t86.5 30.5l27 16zM1333 241.5q0 -112.5 -79.5 -192.5t-192.5 -80t-193 80t-80 192.5t80 192.5t193 80t192.5 -80t79.5 -192.5zM1212 241.5q0 63.5 -44 107.5t-107.5 44t-107.5 -44t-44 -107.5t44 -107.5t107.5 -44t107.5 44 t44 107.5z" />
<glyph unicode="&#x26;" horiz-adv-x="1800" d="M1663 705q0 -211 -129 -383t-322.5 -262.5t-398.5 -90.5q-285 0 -490.5 168t-205.5 447q0 260 189.5 462.5t449.5 245.5l18 -114q-197 -37 -343 -207t-146 -369q0 -74 22 -151l311 254q10 10 71 58l96 79q36 31 93.5 85t91.5 95t60.5 89t26.5 85q0 53 -56.5 100 t-117.5 70l39 84q109 -23 195.5 -92.5t86.5 -167.5q0 -20 -2 -29q-4 -27 -19.5 -58.5t-42.5 -66.5l-55 -66q-27 -32 -68 -72l-72 -68q-30 -28 -77 -67l-69 -58l-67 -54q-44 -35 -50 -41l-330 -268q150 -260 475 -260q172 0 328 83t253 231.5t97 322.5q0 92 -35 172h-180 l-14 72q70 41 176 41q119 0 165 -79t46 -220z" />
<glyph unicode="'" horiz-adv-x="303" d="M352 1321l-96 -324l-68 2l9 322l47 129h100z" />
<glyph unicode="(" horiz-adv-x="716" d="M809 1589l-2 -121q-248 -145 -401.5 -418.5t-153.5 -564.5q0 -203 84 -379q43 -92 83 -141t130 -129l-64 -82q-346 270 -346 731q0 338 185.5 637t484.5 467z" />
<glyph unicode=")" horiz-adv-x="696" d="M18 -258l-43 92q106 80 168 134.5t129 137.5q256 322 256 715q0 197 -73.5 371t-221.5 278l33 119q186 -129 283.5 -326.5t97.5 -428.5q0 -383 -244 -728q-139 -198 -385 -364z" />
<glyph unicode="*" horiz-adv-x="808" d="M797 1130l-281 -106l150 -315h-136l-112 239l-201 -239l-115 34l246 291l-262 94l49 121l260 -100l-41 233h246l-106 -247l272 112z" />
<glyph unicode="+" horiz-adv-x="964" d="M872 451h-331v-355h-119v355h-330v122h330v355h119v-355h331v-122z" />
<glyph unicode="," horiz-adv-x="528" d="M352 53q-111 -170 -313 -336l-84 76q197 211 180 350q49 23 90 23q68 0 127 -113z" />
<glyph unicode="-" horiz-adv-x="618" d="M506 461h-393v123h393v-123z" />
<glyph unicode="." horiz-adv-x="528" d="M332 94q0 -49 -40 -87t-91 -38q-49 0 -84 33t-35 82q0 51 39 88t90 37q49 0 85 -33t36 -82z" />
<glyph unicode="/" horiz-adv-x="755" d="M852 1550l-823 -1853h-127l823 1853h127z" />
<glyph unicode="0" d="M872 643q0 -152 -51 -301t-166.5 -261t-273.5 -112q-164 0 -248 118t-84 288q0 109 33 222.5t93.5 212.5t158.5 161.5t215 62.5q164 0 243.5 -110.5t79.5 -280.5zM723 629q0 279 -195 278q-104 0 -183 -93t-112.5 -207.5t-33.5 -215.5q0 -119 47 -208t153 -89 q109 0 187 98.5t107.5 215.5t29.5 221z" />
<glyph unicode="1" d="M670 1001l-158 -1001h-152l136 856h-258l16 98q88 0 199 29l75 18h142z" />
<glyph unicode="2" d="M852 778q0 -117 -92 -251t-205 -231t-225 -161h456l-22 -135h-660l-8 127q195 98 383 293q78 80 142.5 179t64.5 177q0 66 -44 96.5t-112 30.5q-100 0 -260 -98l-51 100q100 72 175 100.5t184 28.5q274 0 274 -256z" />
<glyph unicode="3" d="M856 834q0 -63 -30.5 -120t-89 -103t-103.5 -72.5t-115 -63.5q111 0 188.5 -63.5t77.5 -171.5q0 -182 -106.5 -317.5t-263 -199t-334.5 -63.5l-23 115q92 2 188.5 29.5t182.5 78.5t141.5 134t55.5 182q0 154 -244 153q-74 0 -166 -10l-8 117q10 2 28.5 4t33.5 4l30 4 q23 4 134.5 73.5t150.5 98.5q115 80 114 170q0 45 -31.5 68.5t-78.5 23.5q-100 0 -297 -104l-43 100q84 55 192.5 94t198.5 39q98 0 157.5 -52t59.5 -148z" />
<glyph unicode="4" d="M854 1004l-137 -871h131l-21 -133h-135q-53 -240 -123 -342l-114 51q47 98 90 291h-510l12 133q266 434 641 871h166zM676 799q-274 -338 -475 -666h364z" />
<glyph unicode="5" d="M866 1004l-20 -123h-367l-98 -412q43 12 88 12q332 0 332 -256q0 -164 -114 -298t-273.5 -202.5t-317.5 -66.5h-10l-14 121q170 4 323 80q96 47 170 144t74 198q0 82 -59.5 118.5t-147.5 36.5q-96 0 -242 -41l168 689h508z" />
<glyph unicode="6" d="M854 1214q-219 -127 -303 -200q-23 -18 -41 -37q-111 -115 -174 -238q-41 -80 -67.5 -188.5t-26.5 -194.5q0 -102 43 -184t137 -82q215 0 270 361q4 37 4 55q0 180 -229 180q-66 0 -150 -37l31 31l30 30q9 9 27.5 24.5t31.5 21.5l32 14q18 8 39.5 11t46.5 3 q127 0 210 -73.5t83 -198.5q0 -33 -6 -68q-31 -197 -149 -337t-304 -140q-106 0 -175 62.5t-93.5 146.5t-24.5 189q0 328 196.5 566t522.5 384z" />
<glyph unicode="7" d="M874 1004l-20 -132q-47 -291 -238.5 -652t-408.5 -591l-107 90q207 223 384.5 551t222.5 602h-525l21 132h671z" />
<glyph unicode="8" d="M602 688q135 -78 174 -121q61 -68 62 -166q0 -59 -21 -127q-45 -143 -166 -225t-274 -82q-135 0 -223 82t-88 215q0 145 122 287q61 70 183 123q-82 51 -123 107.5t-41 140.5q0 162 118.5 265t282.5 103q127 0 204 -56t77 -175q0 -129 -79 -223.5t-208 -147.5zM743 1038 q0 141 -168 142q-94 0 -158.5 -78t-64.5 -174q0 -111 140 -187q121 47 186 113.5t65 183.5zM682 376.5q0 108.5 -102 170.5l-117 71q-104 -51 -172 -134t-68 -187q0 -90 51.5 -151.5t139.5 -61.5q106 0 187 92t81 200.5z" />
<glyph unicode="9" d="M852 649q0 -86 -18 -172q-111 -522 -705 -790l-49 96q223 127 307 199q25 20 45 43q268 274 268 608q0 281 -163 280q-86 0 -149.5 -61t-93.5 -137t-42 -164q-6 -27 -6 -55q0 -178 231 -179q59 0 148 35q-16 -14 -52 -51t-51.5 -47t-52.5 -23.5t-82 -13.5q-127 0 -210 74 t-83 198l6 68q33 209 144.5 343t308.5 134q154 0 226.5 -111.5t72.5 -273.5z" />
<glyph unicode=":" horiz-adv-x="528" d="M332 94q0 -49 -40 -87t-91 -38q-49 0 -84 33t-35 82q0 51 39 88t90 37q49 0 85 -33t36 -82zM434 719q0 -49 -40 -87t-91 -38q-49 0 -84 32.5t-35 82t40 87.5t89 38t85 -33t36 -82z" />
<glyph unicode=";" horiz-adv-x="528" d="M346 53q-111 -170 -313 -336l-84 76q197 211 180 350q49 23 90 23q68 0 127 -113zM457 723q0 -51 -40 -89t-91 -38q-49 0 -84 33t-35 82q0 51 40 89t91 38q49 0 84 -33t35 -82z" />
<glyph unicode="&#x3c;" horiz-adv-x="614" d="M547 205l-96 -78l-383 385l378 385l97 -78l-305 -307z" />
<glyph unicode="=" horiz-adv-x="983" d="M872 598h-782v123h782v-123zM872 293h-782v123h782v-123z" />
<glyph unicode="&#x3e;" horiz-adv-x="614" d="M68 205l96 -78l383 385l-379 385l-96 -78l305 -307z" />
<glyph unicode="?" horiz-adv-x="815" d="M371 94q0 -49 -40 -87t-91 -38q-49 0 -84 33t-35 82q0 51 40 88t91 37q49 0 84 -33t35 -82zM338 338h-125q4 20 14.5 97t16.5 101.5t23.5 81t46 100.5t69.5 91l182 205q35 39 64.5 98t29.5 105q0 82 -100 81h-172q-135 0 -190 84l100 105q47 -66 113 -66h180 q227 0 227 -176q0 -133 -119 -272l-182 -207q-35 -39 -58.5 -68.5t-40.5 -61.5l-27 -48q-9 -16 -18.5 -54t-11.5 -50.5t-10 -67.5t-12 -78z" />
<glyph unicode="@" horiz-adv-x="1622" d="M1018 936q-76 98 -205 98q-78 0 -132 -83t-73.5 -174t-19.5 -167q0 -59 21.5 -106t74.5 -47q18 0 43 6t41 12t47 22.5t41 22.5l43 26q33 19 35 21zM1081 299q-72 0 -119 35t-47 104q0 12 5 33q-119 -102 -175 -127q-45 -20 -90 -20q-98 0 -152 80.5t-54 183.5 q0 94 18 185t58 178t116 141.5t176 54.5q145 0 225 -117l21 84h133l-141 -592q-12 -45 -13 -67q0 -55 56 -56q125 0 218 151.5t93 285.5q0 252 -163 394t-419 142q-254 0 -429 -195.5t-175 -453.5q0 -270 179.5 -457.5t449.5 -187.5q152 0 292 65.5t230 182.5l96 -52 q-94 -139 -270 -225t-348 -86q-319 0 -541.5 222.5t-222.5 541.5q0 299 223.5 529.5t519.5 230.5q295 0 490 -179.5t195 -471.5q0 -113 -56.5 -236t-160 -212t-218.5 -89z" />
<glyph unicode="A" horiz-adv-x="1052" d="M950 0h-168l-61 416h-393l-203 -416h-170l612 1290h178zM702 551l-69 569l-244 -569h313z" />
<glyph unicode="B" horiz-adv-x="1017" d="M711 690q104 -6 162.5 -73.5t58.5 -172.5q0 -217 -155.5 -346t-375.5 -129q-121 0 -313 51l201 1268h317q346 0 346 -262q0 -109 -68.5 -208t-172.5 -128zM791 1008q0 154 -207 153h-152l-65 -416q27 0 76 -1t75 -1q115 0 194 75t79 190zM768 432q0 59 -23.5 98 t-68.5 55.5t-86 21.5t-101 5h-143l-76 -477q88 -27 150 -26q147 0 247.5 86.5t100.5 236.5z" />
<glyph unicode="C" horiz-adv-x="1007" d="M1061 1233l-76 -100q-102 57 -262 57q-84 0 -165 -60.5t-134 -142.5q-141 -217 -141 -518q0 -152 64.5 -261.5t205.5 -109.5q164 0 291 90l55 -104q-74 -53 -177.5 -85t-197.5 -32q-209 0 -307 140.5t-98 357.5q0 176 55 347t160 298q176 211 409 211q197 0 318 -88z" />
<glyph unicode="D" horiz-adv-x="1128" d="M440 0h-352l205 1290h373q199 0 292 -124t93 -330q0 -145 -36 -287.5t-105.5 -267.5t-191.5 -203t-278 -78zM885 831q0 328 -248 328h-203l-164 -1028h191q119 0 206 70.5t132 183.5t65.5 225t20.5 221z" />
<glyph unicode="E" horiz-adv-x="913" d="M956 1290l-22 -137h-500l-65 -410h383l-21 -141h-383l-74 -461h521l-23 -141h-684l205 1290h663z" />
<glyph unicode="F" horiz-adv-x="847" d="M899 1290l-22 -135h-443l-65 -412h350l-21 -141h-350l-96 -602h-164l205 1290h606z" />
<glyph unicode="G" horiz-adv-x="1062" d="M1063 1233l-82 -105q-98 63 -258 64q-84 0 -165 -61.5t-134 -143.5q-141 -217 -141 -518q0 -152 64.5 -261.5t205.5 -109.5q106 0 184 29l68 424h151l-84 -531q-139 -53 -344 -53q-211 0 -310 139.5t-99 358.5q0 176 55 347t160 298q176 211 409 211q162 0 320 -88z" />
<glyph unicode="H" horiz-adv-x="1122" d="M1087 1290l-204 -1290h-164l96 604h-467l-96 -604h-164l205 1290h164l-88 -547h467l88 547h163z" />
<glyph unicode="I" horiz-adv-x="487" d="M453 1290l-205 -1290h-160l205 1290h160z" />
<glyph unicode="J" horiz-adv-x="487" d="M453 1290l-213 -1347q-33 -207 -336 -277l-17 111q174 53 195 178l211 1335h160z" />
<glyph unicode="K" horiz-adv-x="931" d="M926 1305q6 -31 6 -64q0 -141 -105 -250l-350 -356l432 -586v-49h-172l-399 539l-86 -539h-164l205 1290h164l-92 -585l327 342q72 74 72 190q0 27 -2 39z" />
<glyph unicode="L" horiz-adv-x="763" d="M719 127l-19 -127h-612l205 1290h156l-187 -1163h457z" />
<glyph unicode="M" horiz-adv-x="1519" d="M1485 1290l-205 -1290h-164l139 877q8 59 41 178l-520 -1055h-143l-223 1057q-8 -119 -19 -176l-139 -881h-164l205 1290h217l188 -880q29 -141 35 -209q70 170 90 209l445 880h217z" />
<glyph unicode="N" horiz-adv-x="1134" d="M1100 1290l-205 -1290h-168l-319 1057q-2 -86 -17 -180l-139 -877h-164l205 1290h215l280 -985l19 178l129 807h164z" />
<glyph unicode="O" horiz-adv-x="1120" d="M883 842q0 344 -217 344q-104 0 -185.5 -84t-122.5 -209t-61.5 -243t-20.5 -214q0 -334 218 -334q86 0 155.5 55.5t111.5 139.5t70.5 187.5t40 193.5t11.5 164zM473 -33q-98 0 -171 46t-110.5 123t-55 160t-17.5 177q0 100 21.5 211t67.5 225.5t110.5 205.5t160.5 148.5 t209 57.5q98 0 170 -45t111 -121t56 -159t17 -175q0 -127 -34.5 -270t-101 -276.5t-180.5 -220.5t-253 -87z" />
<glyph unicode="P" horiz-adv-x="993" d="M512 461q-96 0 -180 45l-80 -506h-164l205 1290h278q182 0 302 -76.5t120 -248.5q0 -223 -137 -363.5t-344 -140.5zM827 944q0 113 -78.5 164t-197.5 51h-115l-84 -522q100 -43 160 -43q133 0 224 102.5t91 247.5z" />
<glyph unicode="Q" horiz-adv-x="1071" d="M1018 821q0 -356 -170 -606t-502 -373q10 -4 40 -20l39 -22q9 -5 34.5 -17l38 -17.5t36 -13.5t41 -10t40 -5t47.5 -3q135 0 280 47l-33 -166q-68 -18 -168 -18q-47 0 -88 4t-85 17l-69 21q-26 7 -76 33l-66 35q-15 8 -76 44l-76 44l-17 70q199 109 254 143 q-170 41 -259 168t-89 309q0 129 35 269.5t100.5 269.5t179 213t255.5 84q98 0 169.5 -45t110.5 -121t56.5 -160t17.5 -174zM858 842q0 344 -217 344q-104 0 -184 -77t-121 -194.5t-61.5 -229.5t-20.5 -208q0 -334 311 -375q154 119 223.5 318t69.5 422z" />
<glyph unicode="R" horiz-adv-x="1019" d="M993 965q0 -176 -110.5 -319.5t-282.5 -174.5l315 -422l-8 -49h-159l-351 471q-37 12 -65 31l-80 -502h-164l205 1290h278q182 0 302 -76.5t120 -248.5zM827 944q0 113 -78.5 164t-197.5 51h-115l-84 -522q86 -43 146 -43q131 0 230 107.5t99 242.5z" />
<glyph unicode="S" horiz-adv-x="880" d="M860 1176l-96 -80q-37 43 -93.5 70.5t-109.5 27.5q-92 0 -158.5 -65.5t-66.5 -157.5q0 -59 32.5 -108.5t83.5 -82.5l108 -72q58 -40 108.5 -79t83 -102.5t32.5 -139.5q0 -182 -124.5 -300t-309.5 -118q-174 0 -297 119l84 113q119 -98 228 -99q94 0 176 76t82 170 q0 63 -47.5 117.5t-114.5 97.5l-134 89q-67 46 -114 116t-47 158q0 176 120 285.5t296 109.5q76 0 152.5 -42t125.5 -103z" />
<glyph unicode="T" horiz-adv-x="800" d="M913 1286l-22 -143h-316l-180 -1143h-159l180 1143h-314l23 143h788z" />
<glyph unicode="U" horiz-adv-x="1114" d="M1092 1290l-127 -796q-16 -106 -52 -196.5t-94.5 -167.5t-147.5 -120t-200 -43q-172 0 -254 107.5t-82 283.5q0 72 12 144l125 788h164l-125 -790q-12 -70 -12 -144q0 -254 195 -254q244 0 309 400l125 788h164z" />
<glyph unicode="V" horiz-adv-x="993" d="M1024 1290v-211q0 -205 -86 -360l-391 -719h-189l-215 1290h179l161 -1093l303 567q66 121 66 311v215h172z" />
<glyph unicode="W" horiz-adv-x="1519" d="M1540 1079q0 -57 -20.5 -128.5t-36.5 -107.5l-58 -120l-356 -723h-166q-6 111 -23.5 328t-27.5 388t-14 326q-6 -18 -20.5 -53t-16.5 -43l-365 -946h-174l-98 1290h174l53 -913q1 -15 2 -35q0 -40 -6 -100q20 78 43 135l363 913h163l66 -913q4 -36 4 -77q0 -28 -2 -58 q20 63 61 147l189 404q6 12 21 46l23 49q7 15 18.5 45t17.5 50.5t10 48t4 53.5v205h172v-211z" />
<glyph unicode="X" horiz-adv-x="1013" d="M1065 1245l-422 -575l295 -670h-188l-222 512l-374 -512h-146v45l455 617l-273 628h179l209 -473l350 473h137v-45z" />
<glyph unicode="Y" horiz-adv-x="882" d="M985 1221q-172 -104 -286.5 -343t-159.5 -483l-70 -395h-162l74 457q-8 133 -32.5 263t-91.5 272.5t-165 203.5l107 113q72 -45 136 -139.5t91 -180.5q52 -157 52 -272q0 -16 -1 -31l31 115q37 137 150.5 301t228.5 223z" />
<glyph unicode="Z" horiz-adv-x="909" d="M891 1290l-14 -143l-672 -1004h629l-23 -143h-786v139l661 1008h-457l13 143h649z" />
<glyph unicode="[" horiz-adv-x="589" d="M625 1499l-21 -119h-190l-250 -1581h190l-18 -118h-318l289 1818h318z" />
<glyph unicode="\" horiz-adv-x="686" d="M682 -303h-127l-530 1853h127z" />
<glyph unicode="]" horiz-adv-x="595" d="M598 1499l-289 -1818h-317l18 118h191l250 1581h-191l21 119h317z" />
<glyph unicode="^" horiz-adv-x="1277" d="M1128 655h-143l-348 629l-348 -629h-144l435 795h114q194 -381 434 -795z" />
<glyph unicode="_" d="M922 -276h-922v122h922v-122z" />
<glyph unicode="`" horiz-adv-x="518" d="M518 1241l-80 -92q-211 123 -336 262l148 129q86 -149 268 -299z" />
<glyph unicode="a" horiz-adv-x="1003" d="M911 1001l-125 -860q0 -4 -1 -9t-1 -7q0 -49 47 -49q20 0 50 12l26 -78q-66 -39 -135 -39q-63 0 -104 41t-41 107q0 20 7 55t9 47q-45 -96 -156.5 -174t-214.5 -78q-180 0 -180 279q0 117 34 249t97.5 254.5t169 202.5t234.5 80q116 0 284 -33zM750 891q-55 14 -121 14 q-86 0 -161 -72.5t-118 -177t-67.5 -210t-24.5 -183.5q0 -156 76 -156q106 0 220 136.5t132 251.5z" />
<glyph unicode="b" horiz-adv-x="1038" d="M410 -31q-76 0 -161 35t-147 88l211 1329h156l-78 -493q113 106 266 106q143 0 216 -107.5t73 -256.5q0 -170 -54 -325t-180 -265.5t-302 -110.5zM786 666q0 240 -172 239q-129 0 -245 -112l-97 -615q72 -84 191 -84q80 0 145.5 62.5t102.5 156t56 186.5t19 167z" />
<glyph unicode="c" horiz-adv-x="849" d="M836 932l-80 -94q-94 70 -183 69q-102 0 -179 -92t-109.5 -202.5t-32.5 -209.5q0 -53 10 -104t31.5 -99t64.5 -78t101 -30q49 0 132 48t134 96l59 -82q-74 -78 -174 -131.5t-196 -53.5q-154 0 -238 118t-84 278q0 113 32 227.5t90 213.5t156.5 162.5t219.5 63.5 q117 0 246 -100z" />
<glyph unicode="d" horiz-adv-x="1024" d="M449 -31q-174 0 -265.5 115t-91.5 295q0 162 56.5 308.5t179.5 246.5t288 100q123 0 187 -86q33 176 33 269q0 113 -43 176l120 53q74 -104 74 -258q0 -41 -6 -78l-119 -721q-31 -184 -134 -302t-279 -118zM782 817q-66 92 -180 92q-94 0 -165.5 -53t-110.5 -139 t-57.5 -175t-18.5 -175q0 -119 48 -197t161 -78q43 0 77.5 14.5t58 33t45.5 57.5t32 63.5t22.5 75.5t16.5 70.5t12 70.5z" />
<glyph unicode="e" horiz-adv-x="894" d="M862 811q0 -270 -606 -397q-2 -16 -2 -47q0 -100 47 -187.5t139 -87.5q70 0 148 44t133 104l61 -84q-176 -186 -376 -187q-156 0 -235 116t-79 277q0 158 56.5 307.5t179.5 257t284 107.5q113 0 181.5 -57t68.5 -166zM694 823q0 88 -114 88q-117 0 -202 -120.5 t-110 -251.5q426 91 426 284z" />
<glyph unicode="f" horiz-adv-x="550" d="M582 1405l-15 -111q-18 6 -43 6q-113 0 -121 -208q-4 -66 -4 -88h166l-2 -117l-172 -6q-8 -123 -24.5 -318.5t-30.5 -329.5l-12 -133q-20 -225 -213 -483l-91 53q125 209 150 475q49 494 66 740l-144 18l17 101h133l6 96q16 322 241 321q48 0 93 -16z" />
<glyph unicode="g" horiz-adv-x="907" d="M819 1006q-8 -137 -39 -318q-43 -254 -84 -352q-31 -72 -71 -121q76 -12 123 -76.5t47 -154.5q0 -119 -88.5 -209t-204 -130t-230.5 -40q-51 0 -98 6t-99 23.5t-84 55.5t-32 93q0 104 104.5 213.5t221.5 177.5l65 -96q-76 -51 -154.5 -130t-78.5 -136q0 -53 49 -75 t110 -22q119 0 242 71t123 179q0 80 -55 124q-53 42 -128 42h-7l-7 43q2 4 19 24l21 25l21 26q15 19 20 27.5t18.5 27t19.5 29.5t16.5 27.5t15.5 29.5l11 29q6 15 8 30q-43 -55 -116.5 -94.5t-141.5 -39.5q-125 0 -187.5 78t-62.5 205q0 193 109 314.5t301 121.5 q127 1 303 -28zM672 905q-61 14 -183 15q-109 0 -169 -98.5t-60 -213.5q0 -68 36 -111.5t105 -43.5q84 0 153 76.5t89 164.5q19 92 29 211z" />
<glyph unicode="h" horiz-adv-x="1042" d="M692 -33l-88 76q94 121 117 266l65 453q4 37 5 55q0 49 -26 69.5t-77 20.5q-76 0 -170 -70.5t-145 -146.5q-25 -37 -25 -45l-102 -645h-156l225 1421h156l-96 -606q59 88 160.5 153.5t199.5 65.5q104 0 159.5 -41t55.5 -141q0 -29 -8 -90l-74 -469q-16 -104 -55 -174 t-121 -152z" />
<glyph unicode="i" horiz-adv-x="479" d="M401 1004l-159 -1004h-152l160 1004h151zM494 1296q0 -51 -40 -88t-92 -37q-49 0 -83.5 33t-34.5 82t40 87t91 38q49 0 84 -33t35 -82z" />
<glyph unicode="j" horiz-adv-x="479" d="M494 1296q0 -51 -40 -88t-92 -37q-49 0 -83.5 33t-34.5 82t40 87t91 38q49 0 84 -33t35 -82zM399 1004l-178 -1123q-16 -90 -57 -133q-92 -94 -270 -143l-17 110q176 61 195 181l176 1108h151z" />
<glyph unicode="k" horiz-adv-x="983" d="M537 526l370 -526h-196l-381 559l-88 -559h-152l225 1421h152l-133 -837q158 10 284 69q59 29 110.5 79t51.5 104q0 43 -30 61q-25 15 -59 15q-7 0 -15 -1l-10 123q27 8 67 8q96 0 157.5 -50t61.5 -144q0 -100 -67.5 -175t-158.5 -109t-189 -38z" />
<glyph unicode="l" horiz-adv-x="495" d="M465 1421l-162 -1018q-16 -94 -16 -182q0 -133 28 -196l-145 -43q-33 92 -33 243q0 94 15 178l161 1018h152z" />
<glyph unicode="m" horiz-adv-x="1576" d="M1337 0h-155l121 762q4 33 4 49q0 96 -99 96q-74 0 -167 -83t-146 -165l-102 -659h-156l121 762q4 33 4 47q0 96 -111 96q-72 0 -157.5 -82t-147.5 -172l-100 -651h-156l160 1004h156l-33 -193q39 72 145.5 147.5t181.5 75.5q104 0 168 -53q56 -47 57 -133q0 -11 -1 -23 q49 82 136 145.5t171 63.5q233 0 233 -198q0 -37 -6 -74z" />
<glyph unicode="n" horiz-adv-x="1062" d="M821 0h-155l120 762q6 55 7 57q0 88 -91 88q-98 0 -200.5 -82t-155.5 -180l-100 -645h-156l160 1004h156l-31 -189q51 82 157.5 150.5t202.5 68.5q104 0 159.5 -41t55.5 -141q0 -29 -8 -90z" />
<glyph unicode="o" horiz-adv-x="1001" d="M416 -31q-162 0 -243 123t-81 293q0 143 55.5 288.5t172 253t266.5 107.5q162 0 242.5 -124t80.5 -296q0 -141 -56 -286.5t-173 -252t-264 -106.5zM756 631q0 117 -43 198.5t-148 81.5q-109 0 -185.5 -101t-105 -219t-28.5 -222q0 -115 43 -197t147 -82q84 0 148.5 57.5 t100.5 145.5t53.5 175t17.5 163z" />
<glyph unicode="p" horiz-adv-x="1097" d="M532 -33q-84 0 -146 41t-85 119l-78 -485h-155l168 1069l-146 -78l16 106l150 90l27 175h155l-10 -76q178 106 287 106q143 0 217 -107.5t74 -256.5q0 -104 -30 -222t-85 -227.5t-149.5 -181.5t-209.5 -72zM844 666q0 244 -160 243q-86 0 -276 -110l-50 -301 q-12 -90 -12 -136q0 -111 46 -191.5t151 -80.5q78 0 139 64.5t95 161t50.5 187.5t16.5 163z" />
<glyph unicode="q" horiz-adv-x="1060" d="M967 971l-211 -1331h-156l76 487q-96 -160 -283 -160q-152 0 -226.5 107.5t-74.5 267.5q0 111 33 228.5t92 223t158.5 173t216.5 67.5q80 0 174 -15t147 -32zM795 879q-104 29 -164 28q-100 0 -177 -52t-118 -137t-60.5 -175t-19.5 -183q0 -106 37 -187t129 -81 q68 0 126 42t95 106.5t59.5 130t32.5 127.5z" />
<glyph unicode="r" horiz-adv-x="712" d="M764 940l-119 -139q-31 63 -92 63q-43 0 -152 -131l-49 -61l-106 -672h-156l160 1004h158l-31 -185l45 64q106 152 213 151q39 0 75 -27.5t54 -66.5z" />
<glyph unicode="s" horiz-adv-x="843" d="M803 895l-86 -76q-92 92 -223 92q-74 0 -138.5 -41t-64.5 -110q0 -33 19.5 -59.5t41 -41t56.5 -32.5l174 -92q143 -76 143 -222q0 -156 -105.5 -250t-261.5 -94q-147 0 -311 123l76 103q49 -39 115.5 -71t119.5 -32q80 0 146.5 49t66.5 127t-104 133l-197 107 q-139 74 -139 211q0 154 112.5 234.5t272.5 80.5q86 0 163 -35.5t124 -103.5z" />
<glyph unicode="t" horiz-adv-x="690" d="M649 1004l-18 -119h-199l-108 -680q-3 -21 -4 -39q0 -26 8 -44q12 -30 63 -30q84 0 170 74l45 -100q-117 -96 -256 -97q-111 0 -155 61q-33 44 -33 113q0 25 4 54l110 688l-133 18l17 101h143l29 178h143l-29 -178h203z" />
<glyph unicode="u" horiz-adv-x="1038" d="M971 1004l-135 -850q-4 -29 -5 -41q0 -39 35 -41l-67 -103h-6h-6q-49 0 -80 33q-33 35 -33 88t18 103q-63 -90 -162.5 -157t-199.5 -67q-109 0 -164 42t-55 145q0 29 8 86l121 762h155l-121 -762q-6 -31 -6 -62q0 -84 94 -84q168 0 347 250l106 658h156z" />
<glyph unicode="v" horiz-adv-x="866" d="M811 1018q35 -78 35 -193q0 -141 -70 -256l-344 -569h-158l-204 1004h168l145 -828l279 457q39 63 38 153q0 111 -41 199z" />
<glyph unicode="w" horiz-adv-x="1357" d="M1307 1018q31 -96 30 -203q0 -131 -53 -227l-321 -586l-168 -2l-62 512q-15 121 -14 226q0 42 2 81q-45 -176 -103 -307l-219 -512h-172l-145 1004h164l100 -816l324 816h161l89 -816l229 435q41 80 41 176t-33 184z" />
<glyph unicode="x" horiz-adv-x="864" d="M821 1020q14 -43 15 -105q0 -109 -68 -176l-242 -237l244 -502h-174l-182 387l-299 -387l-135 2v37l370 481l-221 484h170l168 -386l192 191q27 27 27 82q0 53 -16 98z" />
<glyph unicode="y" horiz-adv-x="882" d="M825 1018q37 -92 37 -205q0 -119 -53 -207l-389 -649q-80 -135 -171 -215t-229 -123l-36 105q102 41 174.5 108.5t136.5 169.5l-211 1002h166l149 -832l297 504q20 37 21 94q0 106 -43 217z" />
<glyph unicode="z" horiz-adv-x="843" d="M829 1004l-16 -127q-324 -350 -623 -744h574l-16 -133h-728l11 145q258 358 604 734h-520l14 125h700z" />
<glyph unicode="{" horiz-adv-x="722" d="M723 1399h-121q-16 0 -29.5 -3t-23.5 -7.5t-19.5 -14.5l-14.5 -15t-11 -21.5t-9 -21.5t-8 -25l-5 -24q-1 -5 -5 -27.5t-4 -25.5l-55 -360q-14 -82 -68.5 -156.5t-126.5 -113.5q51 -29 82 -89.5t31 -123.5q0 -33 -4 -49l-58 -361q-8 -66 -8 -96q0 -49 19.5 -67.5 t70.5 -18.5h109l-39 -111h-117q-90 0 -131 42t-41 134q0 31 8 88l58 361q4 37 4 53q0 70 -35 132.5t-98 62.5l16 96q76 0 134.5 81t72.5 165l57 360q18 127 72.5 196.5t169.5 69.5h121z" />
<glyph unicode="|" horiz-adv-x="454" d="M289 -37h-123v1585h123v-1585z" />
<glyph unicode="}" horiz-adv-x="630" d="M602 637l-16 -96q-76 0 -135.5 -82t-71.5 -166l-57 -361q-18 -127 -73.5 -195.5t-172.5 -68.5h-117l-6 111h108q35 0 58.5 11t37 23.5t22.5 44t12.5 46t9.5 57.5l57 361q14 82 67.5 154.5t127.5 107.5q-51 33 -82 94t-31 125q0 35 4 51l55 360q10 55 10.5 100.5t-16 65 t-61.5 19.5h-121l39 110h121q88 0 128 -42t40 -132q0 -31 -9 -92l-57 -360q-4 -18 -4 -54q0 -68 35 -130t98 -62z" />
<glyph unicode="~" horiz-adv-x="1142" d="M1083 737l-24 -147q-8 -8 -23.5 -26.5t-21.5 -23.5t-18.5 -17.5t-18.5 -15.5l-20 -10q-13 -7 -25 -8.5t-29.5 -3.5t-40.5 -2q-74 0 -200.5 70t-198.5 70q-66 0 -100.5 -27t-81.5 -92l20 127q8 8 28.5 35.5t26.5 33.5l24 23q17 16 31.5 20.5t37 9.5t51.5 5q76 0 201.5 -70 t197.5 -70q110 0 184 119z" />
<glyph unicode="&#xa1;" horiz-adv-x="516" d="M201 911.5q0 49.5 40 87t91 37.5q49 0 84 -32.5t35 -82t-40 -87t-92 -37.5q-49 0 -83.5 32.5t-34.5 82zM25 -426q63 190 98 395l110 705h123l-80 -705q-25 -184 -92 -375z" />
<glyph unicode="&#xa2;" horiz-adv-x="868" d="M868 891l-102 -80q-66 82 -139 94l-129 -811q74 6 182 78l63 -74q-121 -117 -266 -129l-18 -119h-92l18 121q-143 23 -214 131.5t-71 262.5q0 133 44 271t124 228q133 143 285 164l22 139h93l-23 -137q76 -8 123 -39.5t100 -99.5zM532 903q-88 -25 -153.5 -116t-92 -192 t-26.5 -196q0 -246 148 -295z" />
<glyph unicode="&#xa3;" horiz-adv-x="905" d="M815 76q-41 -45 -102.5 -76t-118.5 -31q-27 0 -72 7.5t-76 15.5l-30 8h-307q74 330 73 514v264l-121 13l41 102h80v270q0 129 97.5 191.5t232.5 62.5q145 0 213 -57l-35 -94q-63 37 -166 37q-186 0 -186 -170v-240h274v-123h-274v-260q0 -180 -47 -385h145 q119 -39 180 -39q47 0 96.5 26.5t80.5 65.5z" />
<glyph unicode="&#xa4;" horiz-adv-x="1110" d="M1219 1270l-78 -123q-92 137 -279 137q-152 0 -271.5 -106.5t-170.5 -292.5h561l-82 -129h-516q-14 -57 -14 -68q0 -4 -7 -61h457l-82 -129h-379q-8 -193 72 -293.5t223 -100.5q86 0 178.5 43t165.5 119l-26 -164q-145 -127 -348 -127q-195 0 -308.5 141.5t-99.5 381.5 h-199l82 129h119q4 41 8 63q2 23 13 66h-181l82 129h137q59 227 226.5 377.5t390.5 150.5q197 0 326 -143z" />
<glyph unicode="&#xa5;" horiz-adv-x="882" d="M109 647l20 123h203q-76 332 -240 432l107 107q72 -45 136 -139.5t91 -180.5q59 -178 51 -303l31 115q37 137 150.5 301t228.5 223l98 -104q-104 -61 -192 -187.5t-146 -263.5h268l-20 -123h-293q-37 -111 -51 -190h311l-20 -123h-314l-59 -334h-162l55 334h-307l21 123 h305q-4 63 -25 190h-247z" />
<glyph unicode="&#xa7;" horiz-adv-x="860" d="M616 537q0 66 -52 105.5t-120 39.5q-94 0 -150 -47t-56 -139q0 -57 52 -93t111 -36q92 0 153.5 41t61.5 129zM432 1325q158 0 295 -78l-55 -106q-139 66 -244 65q-80 0 -131 -42t-51 -120q0 -49 53 -91t129 -75.5t150.5 -71.5t128 -97.5t53.5 -133.5q0 -113 -58.5 -194.5 t-166.5 -106.5q49 -27 77.5 -45t65.5 -48.5t55.5 -69.5t18.5 -84q0 -154 -98.5 -236t-254.5 -82q-188 0 -356 101l57 112q147 -90 308 -90q86 0 141 42t55 126q0 20 -7 38.5t-15.5 33t-26.5 31t-29.5 25.5t-37 24.5t-35 19.5t-37.5 18l-33 17q-6 2 -62.5 28.5t-71.5 35.5 l-59 37q-43 28 -58 49.5t-31.5 57.5t-16.5 74q0 127 74.5 197t199.5 86q-6 2 -35 16l-38 19q-8 4 -35 18.5t-36 20.5l-32 21q-23 15 -31 26.5t-22 29t-20.5 34t-11.5 38t-5 43.5q0 139 98.5 213t241.5 74z" />
<glyph unicode="&#xa8;" horiz-adv-x="638" d="M322 1315q0 -45 -39 -80t-84 -35q-33 0 -55.5 21.5t-22.5 54.5q0 45 34.5 83t82.5 38q35 0 59.5 -23.5t24.5 -58.5zM637 1315q0 -45 -39 -80t-84 -35q-33 0 -55.5 21.5t-22.5 54.5q0 45 35 83t82 38q35 0 59.5 -23.5t24.5 -58.5z" />
<glyph unicode="&#xa9;" horiz-adv-x="1800" d="M1563 501.5q0 -272.5 -193.5 -466t-466 -193.5t-465 193.5t-192.5 466t192.5 465t464.5 192.5q274 0 467 -192.5t193 -465zM1462 501.5q0 231.5 -163.5 395.5t-395 164t-394.5 -164t-163 -395q0 -236 164 -397.5t399 -161.5q229 0 391 163.5t162 395zM1137 233 q-41 -39 -104.5 -68.5t-114.5 -29.5q-152 0 -238 104.5t-86 260.5q0 154 82 262t231 108q123 0 209 -79l-55 -70q-61 51 -154 51q-104 0 -150 -77t-46 -189q0 -117 50 -196t161 -79q76 0 172 70z" />
<glyph unicode="&#xaa;" horiz-adv-x="745" d="M776 1528l-94 -656q0 -2 -1 -6t-1 -6q0 -37 35 -37q18 0 39 11l20 -60q-51 -31 -104 -31q-49 0 -80 32t-31 81q0 16 6 43t8 35q-37 -74 -120.5 -132.5t-161.5 -58.5q-137 0 -137 211q0 123 42 255t139 237.5t224 105.5q74 1 217 -24zM653 1442q-35 12 -92 12 q-86 0 -153.5 -93t-97 -202.5t-29.5 -193.5q0 -119 57 -119q80 0 166 103.5t102 191.5q14 100 47 301z" />
<glyph unicode="&#xab;" horiz-adv-x="970" d="M547 205l-96 -78l-383 385l378 385l97 -78l-305 -307zM913 205l-96 -78l-383 385l379 385l96 -78l-305 -307z" />
<glyph unicode="&#xac;" horiz-adv-x="1095" d="M920 360l-121 -22v422h-705v123h826v-523z" />
<glyph unicode="&#xad;" horiz-adv-x="618" d="M506 461h-393v123h393v-123z" />
<glyph unicode="&#xae;" horiz-adv-x="1800" d="M1556 499.5q0 -274.5 -192.5 -467t-464.5 -192.5t-464.5 193.5t-192.5 466.5q0 274 191.5 465.5t466 191.5t465.5 -191.5t191 -466zM1456 499.5q0 231.5 -164 395.5t-393 164q-231 0 -394 -164t-163 -395q0 -238 163 -398.5t400 -160.5q231 0 391 163.5t160 395z M1192 145h-109l-245 248q-23 6 -45 19v-267h-105v727h176q125 0 212 -59t87 -178q0 -84 -57 -159t-139 -83l225 -217v-31zM1055 639q0 78 -54.5 113.5t-136.5 35.5h-71v-290q57 -27 94 -27q76 0 122 45t46 123z" />
<glyph unicode="&#xaf;" horiz-adv-x="632" d="M633 1294l-21 -120h-561l21 120h561z" />
<glyph unicode="&#xb0;" horiz-adv-x="641" d="M309 754q-104 0 -175 68.5t-71 172.5q0 129 102.5 228.5t231.5 99.5q104 0 174 -68.5t70 -173.5q0 -133 -99.5 -230t-232.5 -97zM543 1069q0 72 -44 118t-116 46q-82 0 -150.5 -68.5t-68.5 -156.5q0 -72 44 -117t114 -45q88 0 154.5 69.5t66.5 153.5z" />
<glyph unicode="&#xb1;" horiz-adv-x="915" d="M852 121v-123h-739v123h739zM872 451h-331v-256h-119v256h-330v122h330v355h119v-355h331v-122z" />
<glyph unicode="&#xb4;" horiz-adv-x="573" d="M573 1411q-160 -137 -417 -262l-52 92q225 147 363 299z" />
<glyph unicode="&#xb5;" horiz-adv-x="1062" d="M371 -180q0 -76 -39 -144l-205 -36q59 137 59 229q0 61 -11 186t-11 187v762h155v-762q0 -76 21.5 -111t93.5 -35q70 0 162 36t143 81v791h156v-850q0 -80 43 -82l-51 -103q-55 0 -95 32t-49 85q-63 -51 -152 -84t-171 -33q-31 0 -88 31q39 -117 39 -180z" />
<glyph unicode="&#xb6;" horiz-adv-x="1132" d="M1133 1309l-23 -105l-111 -24q-109 -266 -108 -496q0 -94 27 -176q35 -111 34 -238q0 -211 -65 -354l-185 74q78 150 78 370q0 45 -9 131.5t-9 131.5q0 270 125 559l-289 24q-68 6 -121 -54t-75.5 -137t-22.5 -145q0 -82 39 -145t114 -66l-98 -139q-33 -4 -49 -4 q-137 0 -210 88t-73 227q0 203 125 346.5t326 143.5q27 0 39 -2l326 -31l12 90h112q-2 -14 -5 -28l-7 -33q-4 -18 -6 -29z" />
<glyph unicode="&#xb7;" horiz-adv-x="559" d="M395 504q0 -51 -39 -88t-90 -37q-49 0 -85 32.5t-36 82.5q0 51 40 87.5t91 36.5q49 0 84 -32.5t35 -81.5z" />
<glyph unicode="&#xb8;" horiz-adv-x="686" d="M686 -111q0 -74 -82 -143.5t-166 -101.5l-67 63q193 96 192 162q0 51 -57 51q-27 0 -105 -18l17 96h213q55 -48 55 -109z" />
<glyph unicode="&#xba;" horiz-adv-x="790" d="M416 741q-123 0 -184.5 92.5t-61.5 223.5q0 176 104.5 334.5t270.5 158.5q123 0 184.5 -94t61.5 -225q0 -109 -43 -218.5t-131 -190.5t-201 -81zM674 1243q0 213 -144 213q-63 0 -112 -44t-77 -110.5t-41 -133t-13 -124.5q0 -213 143 -213q84 0 142.5 77t80 166t21.5 169 z" />
<glyph unicode="&#xbb;" horiz-adv-x="1048" d="M504 205l96 -78l383 385l-379 385l-96 -78l305 -307zM137 205l96 -78l383 385l-378 385l-97 -78l305 -307z" />
<glyph unicode="&#xbf;" horiz-adv-x="829" d="M479 909q0 49 40 87t91 38q49 0 84 -32.5t35 -81.5q0 -51 -39 -88t-90 -37q-49 0 -85 32.5t-36 81.5zM514 666h125l-15.5 -97.5t-17.5 -100.5t-23.5 -83t-46 -99t-69.5 -91l-182 -205q-35 -39 -65 -98.5t-30 -104.5q0 -82 103 -82h170q135 0 190 -84l-100 -104 q-47 66 -113 65h-180q-227 0 -227 176q0 135 121 273l180 207q41 45 67 83l42 59q15 22 27.5 64.5t15.5 55t13.5 78t14.5 88.5z" />
<glyph unicode="&#xc0;" horiz-adv-x="1052" d="M950 0h-168l-61 416h-393l-203 -416h-170l612 1290h178zM702 551l-69 569l-244 -569h313zM879 1507l-82 -92q-211 123 -334 262l147 129q85 -149 269 -299z" />
<glyph unicode="&#xc1;" horiz-adv-x="1052" d="M950 0h-168l-61 416h-393l-203 -416h-170l612 1290h178zM702 551l-69 569l-244 -569h313zM961 1677q-162 -137 -418 -262l-51 92q225 147 362 299z" />
<glyph unicode="&#xc2;" horiz-adv-x="1052" d="M950 0h-168l-61 416h-393l-203 -416h-170l612 1290h178zM702 551l-69 569l-244 -569h313zM983 1513l-92 -90q-125 125 -176 195q-197 -127 -314 -193l-63 95q94 51 222 137t179 131q105 -144 244 -275z" />
<glyph unicode="&#xc3;" horiz-adv-x="1052" d="M950 0h-168l-61 416h-393l-203 -416h-170l612 1290h178zM702 551l-69 569l-244 -569h313zM920 1708l102 -20q-20 -109 -85 -159t-161 -40q-59 6 -136 46t-138 40q-37 0 -74 -15.5t-55 -31.5l-21 -17l-53 76q53 66 109.5 91.5t140.5 17.5q37 -4 127 -46t147 -42 q70 0 97 100z" />
<glyph unicode="&#xc4;" horiz-adv-x="1052" d="M950 0h-168l-61 416h-393l-203 -416h-170l612 1290h178zM702 551l-69 569l-244 -569h313zM633 1581q0 -45 -39 -80t-84 -35q-33 0 -55.5 21.5t-22.5 54.5q0 45 36 83t81 38q35 0 59.5 -23.5t24.5 -58.5zM948 1581q0 -45 -39 -80t-84 -35q-33 0 -55 21.5t-22 54.5 q0 45 35.5 83t80.5 38q35 0 59.5 -23.5t24.5 -58.5z" />
<glyph unicode="&#xc5;" horiz-adv-x="1052" d="M950 0h-168l-61 416h-393l-203 -416h-170l612 1290h178zM702 551l-69 569l-244 -569h313zM834 1624q0 43 -28 74t-71 31q-57 0 -103 -43.5t-46 -98.5q0 -43 29.5 -73.5t72.5 -30.5q55 0 100.5 44t45.5 97zM674 1389q-78 0 -129 52t-51 130q0 98 77.5 175t176.5 77 q78 0 129 -52.5t51 -130.5q0 -98 -78 -174.5t-176 -76.5z" />
<glyph unicode="&#xc6;" horiz-adv-x="1476" d="M1520 1290l-23 -137h-500l-65 -410h383l-21 -141h-383l-73 -461h520l-23 -141h-684l66 416h-389l-203 -416h-170l612 1290h191l28 -432l70 432h664zM694 551l-63 569l-242 -569h305z" />
<glyph unicode="&#xc7;" horiz-adv-x="1007" d="M686 -111q0 -74 -82 -143.5t-166 -101.5l-67 63q193 88 192 162q0 51 -57 51q-27 0 -105 -18l13 78q-158 39 -226.5 173t-68.5 312q0 176 55 347t160 298q176 211 409 211q197 0 318 -88l-78 -107q-109 66 -260 66q-84 0 -166 -62.5t-133 -142.5q-141 -217 -141 -518 q0 -152 64.5 -261.5t205.5 -109.5q164 0 291 90l55 -104q-106 -76 -252 -104q39 -48 39 -91z" />
<glyph unicode="&#xc8;" horiz-adv-x="913" d="M956 1290l-22 -137h-500l-65 -410h383l-21 -141h-383l-74 -461h521l-23 -141h-684l205 1290h663zM877 1507l-80 -92q-211 123 -336 262l147 129q87 -149 269 -299z" />
<glyph unicode="&#xc9;" horiz-adv-x="913" d="M956 1290l-22 -137h-500l-65 -410h383l-21 -141h-383l-74 -461h521l-23 -141h-684l205 1290h663zM909 1677q-162 -137 -420 -262l-49 92q225 147 363 299z" />
<glyph unicode="&#xca;" horiz-adv-x="913" d="M956 1290l-22 -137h-500l-65 -410h383l-21 -141h-383l-74 -461h521l-23 -141h-684l205 1290h663zM950 1513l-92 -90q-125 125 -176 195q-197 -127 -313 -193l-62 95q92 53 220 138t180 130q104 -144 243 -275z" />
<glyph unicode="&#xcb;" horiz-adv-x="913" d="M956 1290l-22 -137h-500l-65 -410h383l-21 -141h-383l-74 -461h521l-23 -141h-684l205 1290h663zM621 1581q0 -45 -39 -80t-84 -35q-33 0 -55.5 21.5t-22.5 54.5q0 45 36 83t81 38q35 0 59.5 -23.5t24.5 -58.5zM936 1581q0 -45 -39 -80t-84 -35q-33 0 -55.5 21.5 t-22.5 54.5q0 45 36 83t81 38q35 0 59.5 -23.5t24.5 -58.5z" />
<glyph unicode="&#xcc;" horiz-adv-x="487" d="M580 1507l-80 -92q-211 123 -334 262l147 129q85 -149 267 -299zM453 1290l-205 -1290h-160l205 1290h160z" />
<glyph unicode="&#xcd;" horiz-adv-x="487" d="M666 1677q-162 -137 -420 -262l-51 92q102 66 193 140.5t132 117.5l39 41zM453 1290l-205 -1290h-160l205 1290h160z" />
<glyph unicode="&#xce;" horiz-adv-x="487" d="M733 1513l-92 -90q-125 125 -176 195q-197 -127 -313 -193l-64 95q94 51 222 137t179 131q105 -144 244 -275zM475 1290l-205 -1290h-159l204 1290h160z" />
<glyph unicode="&#xcf;" horiz-adv-x="487" d="M346 1581q0 -45 -38 -80t-83 -35q-33 0 -55.5 21.5t-22.5 54.5q0 45 35 83t82 38q33 0 57.5 -23.5t24.5 -58.5zM662 1581q0 -45 -38 -80t-83 -35q-33 0 -55.5 21.5t-22.5 54.5q0 45 34.5 83t82.5 38q33 0 57.5 -23.5t24.5 -58.5zM453 1290l-205 -1290h-160l205 1290h160z " />
<glyph unicode="&#xd1;" horiz-adv-x="1134" d="M1100 1290l-205 -1290h-168l-319 1057q-2 -86 -17 -180l-139 -877h-164l205 1290h215l280 -985l19 178l129 807h164zM1016 1708l102 -20q-20 -109 -84.5 -159t-161.5 -40q-59 6 -136 46t-138 40q-37 0 -74 -15.5t-57 -31.5l-18 -17l-54 76q53 66 109.5 91.5t140.5 17.5 q37 -4 127 -46t148 -42q69 0 96 100z" />
<glyph unicode="&#xd2;" horiz-adv-x="1120" d="M913 1507l-79 -92q-213 123 -336 262l147 129q84 -149 268 -299zM883 842q0 344 -217 344q-104 0 -185.5 -84t-122.5 -209t-61.5 -243t-20.5 -214q0 -334 218 -334q86 0 155.5 55.5t111.5 139.5t70.5 187.5t40 193.5t11.5 164zM473 -33q-98 0 -171 46t-110.5 123t-55 160 t-17.5 177q0 100 21.5 211t67.5 225.5t110.5 205.5t160.5 148.5t209 57.5q98 0 170 -45t111 -121t56 -159t17 -175q0 -127 -34.5 -270t-101 -276.5t-180.5 -220.5t-253 -87z" />
<glyph unicode="&#xd3;" horiz-adv-x="1120" d="M1014 1677q-162 -137 -418 -262l-51 92q225 147 362 299zM883 842q0 344 -217 344q-104 0 -185.5 -84t-122.5 -209t-61.5 -243t-20.5 -214q0 -334 218 -334q86 0 155.5 55.5t111.5 139.5t70.5 187.5t40 193.5t11.5 164zM473 -33q-98 0 -171 46t-110.5 123t-55 160 t-17.5 177q0 100 21.5 211t67.5 225.5t110.5 205.5t160.5 148.5t209 57.5q98 0 170 -45t111 -121t56 -159t17 -175q0 -127 -34.5 -270t-101 -276.5t-180.5 -220.5t-253 -87z" />
<glyph unicode="&#xd4;" horiz-adv-x="1120" d="M1032 1513l-92 -90q-125 125 -176 195q-197 -127 -313 -193l-64 95q94 51 222 137t179 131q105 -144 244 -275zM883 842q0 344 -217 344q-104 0 -185.5 -84t-122.5 -209t-61.5 -243t-20.5 -214q0 -334 218 -334q86 0 155.5 55.5t111.5 139.5t70.5 187.5t40 193.5 t11.5 164zM473 -33q-98 0 -171 46t-110.5 123t-55 160t-17.5 177q0 100 21.5 211t67.5 225.5t110.5 205.5t160.5 148.5t209 57.5q98 0 170 -45t111 -121t56 -159t17 -175q0 -127 -34.5 -270t-101 -276.5t-180.5 -220.5t-253 -87z" />
<glyph unicode="&#xd5;" horiz-adv-x="1120" d="M985 1708l102 -20q-20 -109 -84.5 -159t-160.5 -40q-59 6 -136 46t-139 40q-37 0 -73.5 -15.5t-55.5 -31.5l-20 -17l-53 76q53 66 109 91.5t140 17.5q37 -4 127 -46t148 -42q69 0 96 100zM883 842q0 344 -217 344q-104 0 -185.5 -84t-122.5 -209t-61.5 -243t-20.5 -214 q0 -334 218 -334q86 0 155.5 55.5t111.5 139.5t70.5 187.5t40 193.5t11.5 164zM473 -33q-98 0 -171 46t-110.5 123t-55 160t-17.5 177q0 100 21.5 211t67.5 225.5t110.5 205.5t160.5 148.5t209 57.5q98 0 170 -45t111 -121t56 -159t17 -175q0 -127 -34.5 -270t-101 -276.5 t-180.5 -220.5t-253 -87z" />
<glyph unicode="&#xd6;" horiz-adv-x="1120" d="M883 842q0 344 -217 344q-104 0 -185.5 -84t-122.5 -209t-61.5 -243t-20.5 -214q0 -334 218 -334q86 0 155.5 55.5t111.5 139.5t70.5 187.5t40 193.5t11.5 164zM473 -33q-98 0 -171 46t-110.5 123t-55 160t-17.5 177q0 100 21.5 211t67.5 225.5t110.5 205.5t160.5 148.5 t209 57.5q98 0 170 -45t111 -121t56 -159t17 -175q0 -127 -34.5 -270t-101 -276.5t-180.5 -220.5t-253 -87zM682 1581q0 -45 -38 -80t-85 -35q-33 0 -55.5 21.5t-22.5 54.5q0 45 36 83t81 38q35 0 59.5 -23.5t24.5 -58.5zM997 1581q0 -45 -37.5 -80t-85.5 -35 q-33 0 -55 21.5t-22 54.5q0 45 35.5 83t80.5 38q35 0 59.5 -23.5t24.5 -58.5z" />
<glyph unicode="&#xd8;" horiz-adv-x="1120" d="M340 176l434 979q-47 31 -108 31q-104 0 -185.5 -84t-122.5 -209t-61.5 -243t-20.5 -214q1 -174 64 -260zM840 1075l-424 -958q39 -14 78 -15q86 0 155.5 55.5t111.5 139.5t70.5 187.5t40 193.5t11.5 164q0 141 -43 233zM1051 1550l-140 -315q131 -133 131 -414 q0 -127 -34.5 -270t-101 -276.5t-180.5 -220.5t-253 -87q-66 0 -115 19l-129 -289h-102l149 336q-158 125 -157 440q0 100 21.5 211t67.5 225.5t110.5 205.5t160.5 148.5t209 57.5q78 0 146 -31l114 260h103z" />
<glyph unicode="&#xd9;" horiz-adv-x="1114" d="M936 1507l-80 -92q-211 123 -336 262l148 129q86 -149 268 -299zM1092 1290l-127 -796q-16 -106 -52 -196.5t-94.5 -167.5t-147.5 -120t-200 -43q-172 0 -254 107.5t-82 283.5q0 72 12 144l125 788h164l-125 -790q-12 -70 -12 -144q0 -254 195 -254q244 0 309 400 l125 788h164z" />
<glyph unicode="&#xda;" horiz-adv-x="1114" d="M971 1677q-162 -137 -418 -262l-51 92q225 147 362 299zM1092 1290l-127 -796q-16 -106 -52 -196.5t-94.5 -167.5t-147.5 -120t-200 -43q-172 0 -254 107.5t-82 283.5q0 72 12 144l125 788h164l-125 -790q-12 -70 -12 -144q0 -254 195 -254q244 0 309 400l125 788h164z " />
<glyph unicode="&#xdb;" horiz-adv-x="1114" d="M1047 1513l-93 -90q-125 125 -176 195q-197 -127 -313 -193l-64 95q94 51 222.5 137t179.5 131q105 -144 244 -275zM1092 1290l-127 -796q-16 -106 -52 -196.5t-94.5 -167.5t-147.5 -120t-200 -43q-172 0 -254 107.5t-82 283.5q0 72 12 144l125 788h164l-125 -790 q-12 -70 -12 -144q0 -254 195 -254q244 0 309 400l125 788h164z" />
<glyph unicode="&#xdc;" horiz-adv-x="1114" d="M1092 1290l-127 -796q-16 -106 -52 -196.5t-94.5 -167.5t-147.5 -120t-200 -43q-172 0 -254 107.5t-82 283.5q0 72 12 144l125 788h164l-125 -790q-12 -70 -12 -144q0 -254 195 -254q244 0 309 400l125 788h164zM676 1581q0 -45 -39 -80t-84 -35q-33 0 -55.5 21.5 t-22.5 54.5q0 45 36 83t81 38q35 0 59.5 -23.5t24.5 -58.5zM991 1581q0 -45 -39 -80t-84 -35q-33 0 -55 21.5t-22 54.5q0 45 35.5 83t80.5 38q35 0 59.5 -23.5t24.5 -58.5z" />
<glyph unicode="&#xdf;" horiz-adv-x="1122" d="M1081 287q0 -154 -114.5 -237t-274.5 -83q-80 0 -163 35t-136 92l76 105q45 -43 108.5 -77t116.5 -34q76 0 150 48t74 122q0 57 -45.5 100t-111 74l-130 64.5t-109.5 90t-45 132.5q0 143 108.5 227t258.5 88q29 72 28 129q0 86 -57 125t-145 39q-90 0 -166 -54t-84 -140 l-111 -1096q-18 -170 -198 -420l-91 53q127 213 152 475l64 740l-144 18l17 101h139l16 155q12 133 139 212t271 79q147 0 245.5 -82t98.5 -225q0 -115 -68 -244q-86 14 -110 14q-76 0 -140.5 -41t-64.5 -112q0 -33 20.5 -60.5t41 -41t57.5 -31.5l174 -92q153 -82 153 -248z " />
<glyph unicode="&#xe0;" horiz-adv-x="1003" d="M911 1001l-125 -860q0 -4 -1 -9t-1 -7q0 -49 47 -49q20 0 50 12l26 -78q-66 -39 -135 -39q-63 0 -104 41t-41 107q0 20 7 55t9 47q-45 -96 -156.5 -174t-214.5 -78q-180 0 -180 279q0 117 34 249t97.5 254.5t169 202.5t234.5 80q116 0 284 -33zM750 891q-55 14 -121 14 q-86 0 -161 -72.5t-118 -177t-67.5 -210t-24.5 -183.5q0 -156 76 -156q106 0 220 136.5t132 251.5zM889 1241l-80 -92q-211 123 -336 262l148 129q86 -149 268 -299z" />
<glyph unicode="&#xe1;" horiz-adv-x="1003" d="M911 1001l-125 -860q0 -4 -1 -9t-1 -7q0 -49 47 -49q20 0 50 12l26 -78q-66 -39 -135 -39q-63 0 -104 41t-41 107q0 20 7 55t9 47q-45 -96 -156.5 -174t-214.5 -78q-180 0 -180 279q0 117 34 249t97.5 254.5t169 202.5t234.5 80q116 0 284 -33zM750 891q-55 14 -121 14 q-86 0 -161 -72.5t-118 -177t-67.5 -210t-24.5 -183.5q0 -156 76 -156q106 0 220 136.5t132 251.5zM954 1411q-160 -137 -417 -262l-52 92q225 147 363 299z" />
<glyph unicode="&#xe2;" horiz-adv-x="1003" d="M911 1001l-125 -860q0 -4 -1 -9t-1 -7q0 -49 47 -49q20 0 50 12l26 -78q-66 -39 -135 -39q-63 0 -104 41t-41 107q0 20 7 55t9 47q-45 -96 -156.5 -174t-214.5 -78q-180 0 -180 279q0 117 34 249t97.5 254.5t169 202.5t234.5 80q116 0 284 -33zM750 891q-55 14 -121 14 q-86 0 -161 -72.5t-118 -177t-67.5 -210t-24.5 -183.5q0 -156 76 -156q106 0 220 136.5t132 251.5zM979 1247l-92 -90q-125 125 -176 195q-197 -127 -314 -193l-63 94q94 51 222 137.5t179 131.5q105 -144 244 -275z" />
<glyph unicode="&#xe3;" horiz-adv-x="1003" d="M936 1442l102 -21q-20 -109 -84.5 -159t-160.5 -39q-59 6 -136 46t-139 40q-37 0 -73.5 -15.5t-55.5 -31.5l-20 -17l-54 76q53 66 109.5 91.5t140.5 17.5q37 -4 127 -46.5t148 -42.5q71 1 96 101zM911 1001l-125 -860q0 -4 -1 -9t-1 -7q0 -49 47 -49q20 0 50 12l26 -78 q-66 -39 -135 -39q-63 0 -104 41t-41 107q0 20 7 55t9 47q-45 -96 -156.5 -174t-214.5 -78q-180 0 -180 279q0 117 34 249t97.5 254.5t169 202.5t234.5 80q116 0 284 -33zM750 891q-55 14 -121 14q-86 0 -161 -72.5t-118 -177t-67.5 -210t-24.5 -183.5q0 -156 76 -156 q106 0 220 136.5t132 251.5z" />
<glyph unicode="&#xe4;" horiz-adv-x="1003" d="M911 1001l-125 -860q0 -4 -1 -9t-1 -7q0 -49 47 -49q20 0 50 12l26 -78q-66 -39 -135 -39q-63 0 -104 41t-41 107q0 20 7 55t9 47q-45 -96 -156.5 -174t-214.5 -78q-180 0 -180 279q0 117 34 249t97.5 254.5t169 202.5t234.5 80q116 0 284 -33zM750 891q-55 14 -121 14 q-86 0 -161 -72.5t-118 -177t-67.5 -210t-24.5 -183.5q0 -156 76 -156q106 0 220 136.5t132 251.5zM641 1315q0 -45 -38 -80t-83 -35q-33 0 -55.5 21.5t-22.5 54.5q0 45 35 83t82 38q33 0 57.5 -23.5t24.5 -58.5zM956 1315q0 -45 -37.5 -80t-82.5 -35q-33 0 -55.5 21.5 t-22.5 54.5q0 45 34.5 83t81.5 38q33 0 57.5 -23.5t24.5 -58.5z" />
<glyph unicode="&#xe5;" horiz-adv-x="1003" d="M911 1001l-125 -860q0 -4 -1 -9t-1 -7q0 -49 47 -49q20 0 50 12l26 -78q-66 -39 -135 -39q-63 0 -104 41t-41 107q0 20 7 55t9 47q-45 -96 -156.5 -174t-214.5 -78q-180 0 -180 279q0 117 34 249t97.5 254.5t169 202.5t234.5 80q116 0 284 -33zM750 891q-55 14 -121 14 q-86 0 -161 -72.5t-118 -177t-67.5 -210t-24.5 -183.5q0 -156 76 -156q106 0 220 136.5t132 251.5zM924 1350q-14 -88 -88 -152.5t-164 -64.5q-88 0 -140.5 63.5t-37.5 153.5q14 88 88.5 152.5t163 64.5t140.5 -63.5t38 -153.5zM829.5 1349.5q8.5 49.5 -21.5 86.5t-77 37 q-51 0 -94 -37t-51 -86.5t22.5 -86t77.5 -36.5q49 0 92 36.5t51.5 86z" />
<glyph unicode="&#xe6;" horiz-adv-x="1361" d="M600 152q-61 -74 -151.5 -128.5t-176.5 -54.5q-180 0 -180 279q0 117 34 249t97.5 254.5t169 202.5t234.5 80q86 0 262 -43q90 43 190 43q113 0 181.5 -57t68.5 -166q0 -270 -606 -397q0 -8 -1 -24.5t-1 -22.5q0 -100 47 -187.5t139 -87.5q72 0 149 44t134 104l59 -84 q-172 -186 -377 -187q-196 1 -272 183zM1161 823q0 88 -114 88q-117 0 -202 -120.5t-110 -251.5q426 91 426 284zM754 891q-57 14 -125 14q-86 0 -161 -72.5t-118 -177t-67.5 -210t-24.5 -183.5q0 -156 76 -156q113 0 233 154q-8 47 -8 102q0 145 50.5 288t144.5 241z" />
<glyph unicode="&#xe7;" horiz-adv-x="849" d="M582 -111q0 -74 -82 -143.5t-166 -101.5l-68 63l21 10l24 13.5l25.5 14.5t30.5 18l26 19q16 11 26 20l19 21q10 11 14.5 23.5t4.5 22.5q0 51 -58 51q-29 0 -102 -18l12 86q-104 37 -160.5 142.5t-56.5 234.5q0 113 32 227.5t90 213.5t156.5 162.5t219.5 63.5 q117 0 246 -100l-80 -94q-94 70 -183 69q-102 0 -179 -92t-109.5 -202.5t-32.5 -209.5q0 -53 10 -104t31.5 -99t64.5 -78t101 -30q49 0 132 48t134 96l59 -82q-109 -115 -252 -164q50 -46 50 -101z" />
<glyph unicode="&#xe8;" horiz-adv-x="894" d="M862 811q0 -270 -606 -397q-2 -16 -2 -47q0 -100 47 -187.5t139 -87.5q70 0 148 44t133 104l61 -84q-176 -186 -376 -187q-156 0 -235 116t-79 277q0 158 56.5 307.5t179.5 257t284 107.5q113 0 181.5 -57t68.5 -166zM694 823q0 88 -114 88q-117 0 -202 -120.5 t-110 -251.5q426 91 426 284zM823 1241l-80 -92q-211 123 -335 262l147 129q86 -149 268 -299z" />
<glyph unicode="&#xe9;" horiz-adv-x="894" d="M862 811q0 -270 -606 -397q-2 -16 -2 -47q0 -100 47 -187.5t139 -87.5q70 0 148 44t133 104l61 -84q-176 -186 -376 -187q-156 0 -235 116t-79 277q0 158 56.5 307.5t179.5 257t284 107.5q113 0 181.5 -57t68.5 -166zM694 823q0 88 -114 88q-117 0 -202 -120.5 t-110 -251.5q426 91 426 284zM879 1411q-160 -137 -418 -262l-51 92q225 147 362 299z" />
<glyph unicode="&#xea;" horiz-adv-x="894" d="M862 811q0 -270 -606 -397q-2 -16 -2 -47q0 -100 47 -187.5t139 -87.5q70 0 148 44t133 104l61 -84q-176 -186 -376 -187q-156 0 -235 116t-79 277q0 158 56.5 307.5t179.5 257t284 107.5q113 0 181.5 -57t68.5 -166zM694 823q0 88 -114 88q-117 0 -202 -120.5 t-110 -251.5q426 91 426 284zM905 1247l-92 -90q-125 125 -176 195q-197 -127 -313 -193l-64 94q94 51 222 137.5t180 131.5q104 -144 243 -275z" />
<glyph unicode="&#xeb;" horiz-adv-x="894" d="M862 811q0 -270 -606 -397q-2 -16 -2 -47q0 -100 47 -187.5t139 -87.5q70 0 148 44t133 104l61 -84q-176 -186 -376 -187q-156 0 -235 116t-79 277q0 158 56.5 307.5t179.5 257t284 107.5q113 0 181.5 -57t68.5 -166zM694 823q0 88 -114 88q-117 0 -202 -120.5 t-110 -251.5q426 91 426 284zM559 1315q0 -45 -38 -80t-85 -35q-33 0 -55.5 21.5t-22.5 54.5q0 45 36 83t81 38q35 0 59.5 -23.5t24.5 -58.5zM874 1315q0 -45 -37.5 -80t-84.5 -35q-33 0 -55.5 21.5t-22.5 54.5q0 45 35.5 83t81.5 38q35 0 59 -23.5t24 -58.5z" />
<glyph unicode="&#xec;" horiz-adv-x="479" d="M541 1241l-80 -92q-211 123 -336 262l147 129q87 -149 269 -299zM401 1004l-159 -1004h-152l160 1004h151z" />
<glyph unicode="&#xed;" horiz-adv-x="479" d="M401 1004l-159 -1004h-152l160 1004h151zM598 1411q-162 -137 -420 -262l-51 92q102 66 193.5 140.5t130.5 117.5l41 41z" />
<glyph unicode="&#xee;" horiz-adv-x="479" d="M735 1247l-92 -90q-125 125 -176 195q-197 -127 -313 -193l-64 94q94 51 222 137.5t180 131.5q104 -144 243 -275zM487 1004l-159 -1004h-152l160 1004h151z" />
<glyph unicode="&#xef;" horiz-adv-x="479" d="M625 1315q0 -45 -39 -80t-84 -35q-33 0 -55.5 21.5t-22.5 54.5q0 45 35 83t82 38q33 0 58.5 -24.5t25.5 -57.5zM309 1315q0 -45 -39 -80t-84 -35q-33 0 -55 21.5t-22 54.5q0 45 34.5 83t81.5 38q33 0 58.5 -24.5t25.5 -57.5zM401 1004l-159 -1004h-152l160 1004h151z" />
<glyph unicode="&#xf1;" horiz-adv-x="1062" d="M821 0h-155l120 762q6 55 7 57q0 88 -91 88q-98 0 -200.5 -82t-155.5 -180l-100 -645h-156l160 1004h156l-31 -189q51 82 157.5 150.5t202.5 68.5q104 0 159.5 -41t55.5 -141q0 -29 -8 -90zM932 1442l102 -21q-20 -109 -84.5 -159t-161.5 -39q-59 6 -136 46t-138 40 q-37 0 -74 -15.5t-55 -31.5l-20 -17l-54 76q53 66 109.5 91.5t140.5 17.5q37 -4 127 -46.5t148 -42.5q71 1 96 101z" />
<glyph unicode="&#xf2;" horiz-adv-x="1001" d="M416 -31q-162 0 -243 123t-81 293q0 143 55.5 288.5t172 253t266.5 107.5q162 0 242.5 -124t80.5 -296q0 -141 -56 -286.5t-173 -252t-264 -106.5zM756 631q0 117 -43 198.5t-148 81.5q-109 0 -185.5 -101t-105 -219t-28.5 -222q0 -115 43 -197t147 -82q84 0 148.5 57.5 t100.5 145.5t53.5 175t17.5 163zM829 1241l-79 -92q-211 123 -336 262l147 129q86 -149 268 -299z" />
<glyph unicode="&#xf3;" horiz-adv-x="1001" d="M416 -31q-162 0 -243 123t-81 293q0 143 55.5 288.5t172 253t266.5 107.5q162 0 242.5 -124t80.5 -296q0 -141 -56 -286.5t-173 -252t-264 -106.5zM756 631q0 117 -43 198.5t-148 81.5q-109 0 -185.5 -101t-105 -219t-28.5 -222q0 -115 43 -197t147 -82q84 0 148.5 57.5 t100.5 145.5t53.5 175t17.5 163zM887 1411q-162 -137 -418 -262l-51 92q225 147 362 299z" />
<glyph unicode="&#xf4;" horiz-adv-x="1001" d="M416 -31q-162 0 -243 123t-81 293q0 143 55.5 288.5t172 253t266.5 107.5q162 0 242.5 -124t80.5 -296q0 -141 -56 -286.5t-173 -252t-264 -106.5zM756 631q0 117 -43 198.5t-148 81.5q-109 0 -185.5 -101t-105 -219t-28.5 -222q0 -115 43 -197t147 -82q84 0 148.5 57.5 t100.5 145.5t53.5 175t17.5 163zM934 1247l-92 -90q-125 125 -176 195q-197 -127 -314 -193l-63 94q94 51 222 137.5t179 131.5q105 -144 244 -275z" />
<glyph unicode="&#xf5;" horiz-adv-x="1001" d="M416 -31q-162 0 -243 123t-81 293q0 143 55.5 288.5t172 253t266.5 107.5q162 0 242.5 -124t80.5 -296q0 -141 -56 -286.5t-173 -252t-264 -106.5zM756 631q0 117 -43 198.5t-148 81.5q-109 0 -185.5 -101t-105 -219t-28.5 -222q0 -115 43 -197t147 -82q84 0 148.5 57.5 t100.5 145.5t53.5 175t17.5 163zM887 1442l102 -21q-18 -109 -83.5 -159t-162.5 -39q-57 6 -135 46t-139 40q-37 0 -74 -15.5t-55 -31.5l-21 -17l-53 76q53 66 109.5 91.5t140.5 17.5q37 -4 127 -46.5t148 -42.5q71 1 96 101z" />
<glyph unicode="&#xf6;" horiz-adv-x="1001" d="M416 -31q-162 0 -243 123t-81 293q0 143 55.5 288.5t172 253t266.5 107.5q162 0 242.5 -124t80.5 -296q0 -141 -56 -286.5t-173 -252t-264 -106.5zM756 631q0 117 -43 198.5t-148 81.5q-109 0 -185.5 -101t-105 -219t-28.5 -222q0 -115 43 -197t147 -82q84 0 148.5 57.5 t100.5 145.5t53.5 175t17.5 163zM584 1315q0 -45 -38 -80t-83 -35q-33 0 -56.5 21.5t-23.5 54.5q0 45 36 83t81 38q35 0 59.5 -23.5t24.5 -58.5zM899 1315q0 -45 -38 -80t-83 -35q-33 0 -56.5 21.5t-23.5 54.5q0 45 36 83t81 38q35 0 59.5 -23.5t24.5 -58.5z" />
<glyph unicode="&#xf7;" horiz-adv-x="1001" d="M627 827.5q0 -49.5 -40 -87.5t-89 -38t-85 33t-36 82q0 51 40 88t91 37q49 0 84 -32.5t35 -82zM627 219q0 -49 -40 -87t-89 -38t-85 33t-36 82q0 51 40 88t91 37q49 0 84 -33t35 -82zM889 451h-778v122h778v-122z" />
<glyph unicode="&#xf8;" horiz-adv-x="1001" d="M416 -31q-55 0 -97 15l-98 -217h-102l117 260q-143 111 -144 358q0 143 55.5 288.5t172 253t266.5 107.5q55 0 96 -14l74 166h102l-94 -209q145 -111 145 -363q0 -141 -56 -286.5t-173 -252t-264 -106.5zM629 901q-31 10 -64 10q-109 0 -185.5 -101t-105 -219t-28.5 -222 q0 -133 49 -209zM756 631q0 137 -51 211l-334 -742q31 -10 65 -10q84 0 148.5 57.5t100.5 145.5t53.5 175t17.5 163z" />
<glyph unicode="&#xf9;" horiz-adv-x="1038" d="M971 1004l-135 -850q-4 -29 -5 -41q0 -39 35 -41l-67 -103h-6q-53 -2 -86 33t-33 88t18 103q-63 -90 -162.5 -157t-199.5 -67q-109 0 -164 42t-55 145q0 29 8 86l121 762h155l-121 -762q-6 -31 -6 -62q0 -84 94 -84q168 0 347 250l106 658h156zM868 1241l-80 -92 q-211 123 -335 262l147 129q86 -149 268 -299z" />
<glyph unicode="&#xfa;" horiz-adv-x="1038" d="M971 1004l-135 -850q-4 -29 -5 -41q0 -39 35 -41l-67 -103h-6q-53 -2 -86 33t-33 88t18 103q-63 -90 -162.5 -157t-199.5 -67q-109 0 -164 42t-55 145q0 29 8 86l121 762h155l-121 -762q-6 -31 -6 -62q0 -84 94 -84q168 0 347 250l106 658h156zM899 1411 q-160 -137 -418 -262l-51 92q225 147 363 299z" />
<glyph unicode="&#xfb;" horiz-adv-x="1038" d="M971 1004l-135 -850q-4 -29 -5 -41q0 -39 35 -41l-67 -103h-6q-53 -2 -86 33t-33 88t18 103q-63 -90 -162.5 -157t-199.5 -67q-109 0 -164 42t-55 145q0 29 8 86l121 762h155l-121 -762q-6 -31 -6 -62q0 -84 94 -84q168 0 347 250l106 658h156zM971 1247l-92 -90 q-125 125 -177 195q-197 -127 -313 -193l-63 94q94 51 222 137.5t179 131.5q105 -144 244 -275z" />
<glyph unicode="&#xfc;" horiz-adv-x="1038" d="M971 1004l-135 -850q-4 -29 -5 -41q0 -39 35 -41l-67 -103h-6q-53 -2 -86 33t-33 88t18 103q-63 -90 -162.5 -157t-199.5 -67q-109 0 -164 42t-55 145q0 29 8 86l121 762h155l-121 -762q-6 -31 -6 -62q0 -84 94 -84q168 0 347 250l106 658h156zM606 1315q0 -45 -39 -80 t-84 -35q-33 0 -55 21.5t-22 54.5q0 45 35.5 83t80.5 38q35 0 59.5 -23.5t24.5 -58.5zM922 1315q0 -45 -39 -80t-84 -35q-33 0 -55.5 21.5t-22.5 54.5q0 45 36 83t81 38q35 0 59.5 -23.5t24.5 -58.5z" />
<glyph unicode="&#xff;" horiz-adv-x="882" d="M825 1018q37 -92 37 -205q0 -119 -53 -207l-389 -649q-80 -135 -171 -215t-229 -123l-36 105q102 41 174.5 108.5t136.5 169.5l-211 1002h166l149 -832l297 504q20 37 21 94q0 106 -43 217zM475 1315q0 -45 -39 -80t-84 -35q-33 0 -55.5 21.5t-22.5 54.5q0 45 35 83 t82 38q35 0 59.5 -23.5t24.5 -58.5zM791 1315q0 -45 -39 -80t-84 -35q-33 0 -55.5 21.5t-22.5 54.5q0 45 34.5 83t82.5 38q35 0 59.5 -23.5t24.5 -58.5z" />
<glyph unicode="&#x131;" horiz-adv-x="436" d="M399 1004l-159 -1004h-152l160 1004h151z" />
<glyph unicode="&#x152;" horiz-adv-x="1282" d="M1325 1290l-22 -137h-500l-64 -410h383l-22 -141h-383l-74 -461h520l-22 -141h-686q-94 0 -163 43t-104.5 116.5t-52 153.5t-16.5 168q0 92 14 172q16 104 57 211t103.5 205t159 159.5t206.5 61.5h666zM641 1159q-98 0 -175 -80t-117 -198.5t-59.5 -231t-19.5 -203.5 q0 -317 207 -317z" />
<glyph unicode="&#x153;" horiz-adv-x="1486" d="M1454 811q0 -270 -606 -397q0 -8 -1 -24.5t-1 -22.5q0 -100 48 -187.5t138 -87.5q72 0 148.5 44t134.5 104l59 -84q-176 -186 -377 -187q-180 0 -262 160q-139 -160 -319 -160q-162 0 -243 123t-81 293q0 141 56.5 287.5t173 254t264.5 107.5q184 0 270 -170 q147 170 348 170q113 0 181.5 -57t68.5 -166zM1286 823q0 88 -115 88q-117 0 -201.5 -120.5t-109.5 -251.5q426 91 426 284zM752 694q-20 217 -187 217q-84 0 -148.5 -57t-100 -145t-53 -176.5t-17.5 -163.5q0 -115 43 -197t147 -82q160 0 252 209q-4 41 -4 63q0 178 68 332 z" />
<glyph unicode="&#x178;" horiz-adv-x="882" d="M985 1221q-172 -104 -286.5 -343t-159.5 -483l-70 -395h-162l74 457q-8 133 -32.5 263t-91.5 272.5t-165 203.5l107 113q72 -45 136 -139.5t91 -180.5q59 -178 51 -303l31 115q37 137 150.5 301t228.5 223zM551 1581q0 -45 -38 -80t-83 -35q-33 0 -56.5 21.5t-23.5 54.5 q0 45 36 83t81 38q35 0 59.5 -23.5t24.5 -58.5zM866 1581q0 -45 -37.5 -80t-83.5 -35q-33 0 -56 21.5t-23 54.5q0 45 35.5 83t80.5 38q35 0 59.5 -23.5t24.5 -58.5z" />
<glyph unicode="&#x192;" horiz-adv-x="786" d="M756 1245q-90 45 -152 45q-111 0 -135 -153l-18 -133h229l-21 -119h-225q-23 -162 -43 -277.5t-59 -285.5t-97.5 -304.5t-130.5 -222.5l-84 103q27 35 51.5 80t45.5 102l37 106q16 49 31.5 124l25.5 120t23 128l19 115q5 32 16 114l14 98l-123 16l22 103h113l24 163 q18 115 86 181.5t181 66.5q96 0 170 -49v-121z" />
<glyph unicode="&#x2c6;" horiz-adv-x="737" d="M729 1247l-92 -90q-125 125 -176 195q-197 -127 -314 -193l-63 94q94 51 222 137.5t179 131.5q105 -144 244 -275z" />
<glyph unicode="&#x2c7;" horiz-adv-x="770" d="M770 1407q-225 -147 -362 -299q-111 180 -269 301l80 92q104 -59 215 -205q197 160 285 203z" />
<glyph unicode="&#x2d8;" horiz-adv-x="743" d="M743 1407l-22 -31.5t-56 -69t-83 -87t-96.5 -68.5t-102.5 -31q-74 0 -141.5 73t-98.5 144l-30 72l114 109q2 -10 5.5 -29t16.5 -66t31.5 -81.5t51.5 -64.5t71 -30q63 0 129 68.5t99 136.5l35 68z" />
<glyph unicode="&#x2d9;" horiz-adv-x="309" d="M296.5 1349.5q20.5 -34.5 7.5 -75.5t-54 -69.5t-83 -28.5t-67 34q-18 35 -3.5 76t50.5 70q39 31 84 29.5t65.5 -36z" />
<glyph unicode="&#x2da;" horiz-adv-x="741" d="M739 1350q-14 -88 -87.5 -152.5t-164.5 -64.5q-88 0 -140 63.5t-38 153.5q14 88 89 152.5t163 64.5t140 -63.5t38 -153.5zM645 1349.5q8 49.5 -20.5 86.5t-75.5 37q-51 0 -95 -37t-52.5 -86.5t22.5 -86t78 -36.5q49 0 92 36.5t51 86z" />
<glyph unicode="&#x2db;" horiz-adv-x="661" d="M500 -311l-62 -43q-84 39 -143 115.5t-19 152.5q27 49 67 68.5t144 19.5l-10 -68h-39q-8 0 -31.5 -4t-37 -15t-21.5 -32q-20 -43 28 -99t124 -95z" />
<glyph unicode="&#x2dc;" horiz-adv-x="763" d="M643 1442l102 -21q-20 -109 -84.5 -159t-160.5 -39q-59 6 -136 46t-139 40q-37 0 -73.5 -15.5t-57.5 -31.5l-18 -17l-53 76q53 66 109 91.5t140 17.5q37 -4 127 -46.5t148 -42.5q71 1 96 101z" />
<glyph unicode="&#x2dd;" horiz-adv-x="944" d="M944 1335q-70 -61 -328 -186l-51 92q102 66 171 122t85 79l17 22zM573 1411q-160 -137 -417 -262l-52 92q225 147 363 299z" />
<glyph unicode="&#x394;" horiz-adv-x="1370" d="M1284 641q0 -248 -177 -423t-425 -175t-424 175t-176 423t176 424t424 176t425 -176t177 -424zM1116 643l-663 356v-708z" />
<glyph unicode="&#x3a9;" horiz-adv-x="761" d="M731 1382q0 -209 -461 -303q0 -4 -1 -16t-1 -19q0 -76 36 -142t106 -66q111 0 215 112l45 -65q-135 -139 -287 -140q-119 0 -178.5 87.5t-59.5 211.5q0 119 43 233t136.5 195.5t216.5 81.5q86 0 138 -44t52 -126zM602 1393q0 66 -86 65q-88 0 -152.5 -91t-84.5 -191 q323 67 323 217z" />
<glyph unicode="&#x3c0;" horiz-adv-x="868" d="M786 647l-663 -352v709z" />
<glyph unicode="&#x2000;" horiz-adv-x="911" />
<glyph unicode="&#x2001;" horiz-adv-x="1822" />
<glyph unicode="&#x2002;" horiz-adv-x="911" />
<glyph unicode="&#x2003;" horiz-adv-x="1822" />
<glyph unicode="&#x2004;" horiz-adv-x="606" />
<glyph unicode="&#x2005;" horiz-adv-x="454" />
<glyph unicode="&#x2006;" horiz-adv-x="303" />
<glyph unicode="&#x2007;" horiz-adv-x="303" />
<glyph unicode="&#x2008;" horiz-adv-x="227" />
<glyph unicode="&#x2009;" horiz-adv-x="364" />
<glyph unicode="&#x200a;" horiz-adv-x="100" />
<glyph unicode="&#x2010;" horiz-adv-x="618" d="M506 461h-393v123h393v-123z" />
<glyph unicode="&#x2011;" horiz-adv-x="618" d="M506 461h-393v123h393v-123z" />
<glyph unicode="&#x2012;" horiz-adv-x="618" d="M506 461h-393v123h393v-123z" />
<glyph unicode="&#x2013;" horiz-adv-x="733" d="M733 461h-733v123h733v-123z" />
<glyph unicode="&#x2014;" horiz-adv-x="1245" d="M1245 463h-1245v123h1245v-123z" />
<glyph unicode="&#x2018;" horiz-adv-x="559" d="M199 1008q109 166 315 335l82 -75q-197 -211 -180 -350q-45 -23 -88 -23q-66 0 -129 113z" />
<glyph unicode="&#x2019;" horiz-adv-x="610" d="M557 1198q-111 -170 -313 -336l-84 76q197 211 180 350q49 23 90 23q68 0 127 -113z" />
<glyph unicode="&#x201a;" horiz-adv-x="528" d="M354 84q-113 -178 -323 -377l-82 64q117 139 162 239q14 35 21 69t7 48l-2 16q63 35 103 35q59 -2 114 -94z" />
<glyph unicode="&#x201c;" horiz-adv-x="944" d="M565 1008q109 166 316 335l82 -75q-197 -211 -181 -350q-45 -23 -88 -23q-66 0 -129 113zM203 1008q109 166 315 335l82 -75q-197 -211 -180 -350q-45 -23 -88 -23q-66 0 -129 113z" />
<glyph unicode="&#x201d;" horiz-adv-x="942" d="M563 1198q-111 -170 -313 -336l-84 76q197 211 180 350q49 23 90 23q68 0 127 -113zM926 1198q-111 -170 -314 -336l-84 76q197 211 181 350q49 23 90 23q68 0 127 -113z" />
<glyph unicode="&#x201e;" horiz-adv-x="935" d="M352 59q-111 -170 -313 -335l-82 75q197 211 180 351q45 23 88 22q68 0 127 -113zM715 59q-111 -170 -314 -335l-82 75q197 211 181 351q45 23 88 22q68 0 127 -113z" />
<glyph unicode="&#x2020;" horiz-adv-x="837" d="M838 1004l-43 -136h-267l-69 -440q-49 -324 -148 -459q-27 72 -26 207q0 113 20 252l70 440h-273l23 136h272l45 286h154l-45 -286h287z" />
<glyph unicode="&#x2021;" horiz-adv-x="841" d="M842 1004l-43 -136h-267l-51 -325h287l-41 -135h-266q-53 -326 -150 -457q-53 152 -4 457h-272l20 135h273l51 325h-273l23 136h272l45 284h154l-45 -284h287z" />
<glyph unicode="&#x2022;" horiz-adv-x="868" d="M786 645.5q0 -145.5 -104 -249t-249.5 -103.5t-249 103.5t-103.5 249t103.5 248.5t249 103t249.5 -103t104 -248.5z" />
<glyph unicode="&#x2026;" horiz-adv-x="1204" d="M328 94q0 -49 -40 -87t-91 -38q-49 0 -84 33t-35 82q0 51 39 88t90 37q49 0 85 -33t36 -82zM680 94q0 -49 -40 -87t-91 -38q-49 0 -84 33t-35 82q0 51 39 88t90 37q49 0 85 -33t36 -82zM1028 94q0 -49 -40 -87t-91 -38q-49 0 -84 33t-35 82q0 51 39 88t90 37q49 0 85 -33 t36 -82z" />
<glyph unicode="&#x202f;" horiz-adv-x="364" />
<glyph unicode="&#x2030;" horiz-adv-x="2058" d="M518 1048.5q0 63.5 -44 107.5t-107.5 44t-107.5 -44t-44 -107.5t44 -107.5t107.5 -44t107.5 44t44 107.5zM987 1290l-455 -1290h-135l432 1196q-35 -18 -88 -27.5t-90 -9.5l-35 -2q23 -43 23 -108q0 -113 -80 -193t-192.5 -80t-192.5 80t-80 192.5t80 192.5t193 80 q80 0 145 -41q82 -23 143 -23q57 0 114.5 15.5t86.5 30.5l27 16zM1333 241.5q0 -112.5 -79.5 -192.5t-192.5 -80t-193 80t-80 192.5t80 192.5t193 80t192.5 -80t79.5 -192.5zM1212 241.5q0 63.5 -44 107.5t-107.5 44t-107.5 -44t-44 -107.5t44 -107.5t107.5 -44t107.5 44 t44 107.5zM1962 241.5q0 -112.5 -80 -192.5t-192.5 -80t-192.5 80t-80 192.5t80 192.5t192.5 80t192.5 -80t80 -192.5zM1841 241.5q0 63.5 -44 107.5t-107.5 44t-107.5 -44t-44 -107.5t44 -107.5t107.5 -44t107.5 44t44 107.5z" />
<glyph unicode="&#x2039;" horiz-adv-x="589" d="M547 205l-96 -78l-383 385l378 385l97 -78l-305 -307z" />
<glyph unicode="&#x203a;" horiz-adv-x="667" d="M133 205l96 -78l383 385l-379 385l-96 -78l305 -307z" />
<glyph unicode="&#x2044;" horiz-adv-x="1001" d="M1001 1526l-1163 -1794h-129l1163 1794h129z" />
<glyph unicode="&#x205f;" horiz-adv-x="454" />
<glyph unicode="&#x2122;" horiz-adv-x="1583" d="M737 1417l-14 -92h-199l-114 -719h-101l115 719h-199l15 92h497zM1602 1421l-129 -813h-105l88 553l25 111l-326 -664h-90l-141 666q-2 -55 -13 -111l-86 -555h-104l129 813h137l119 -555q18 -106 20 -131q45 106 58 131l280 555h138z" />
<glyph unicode="&#x2202;" horiz-adv-x="143" d="M143 1421l-225 -1421h-24l225 1421h24z" />
<glyph unicode="&#x220f;" horiz-adv-x="868" d="M752 330h-635v639h635v-639z" />
<glyph unicode="&#x2211;" horiz-adv-x="970" d="M889 647l-129 -76l78 -125h-156v-147l-123 74l-78 -133l-75 131l-123 -78v153h-152l78 129l-127 76l125 74l-72 123h150v145l125 -71l73 125l74 -123l125 80v-156h154l-78 -125z" />
<glyph unicode="&#x221a;" horiz-adv-x="460" />
<glyph unicode="&#x221e;" horiz-adv-x="1232" d="M1106 1501l-954 -1616h-129l954 1616h129zM475 1419l-100 -641h-125l82 520h-158l14 93q51 0 123 14q49 14 60 14h104zM1114 506q0 -174 -280 -393h243l-18 -115h-430l-6 104q102 47 232 170t130 211q0 63 -88 64q-84 0 -192 -76l-7 100q68 49 116 68.5t120 19.5 q180 1 180 -153z" />
<glyph unicode="&#x222b;" horiz-adv-x="675" d="M563 1001l-157 -1001h-152l135 856h-258l16 98q84 0 199 29l76 18h141z" />
<glyph unicode="&#x2248;" horiz-adv-x="1370" d="M682 1241q248 0 425 -176t177 -424t-177 -423t-425 -175t-424 175t-176 423t176 424t424 176z" />
<glyph unicode="&#x2260;" horiz-adv-x="929" d="M907 721l-18 -121h-277l-145 -184h393l-20 -121h-469l-154 -195l-55 50l112 145h-217l21 121h291l143 184h-406l19 121h479l139 176l68 -43l-106 -133h202z" />
<glyph unicode="&#x2264;" horiz-adv-x="460" d="M352 53q-115 -172 -315 -336l-82 76q197 211 180 350q45 23 88 23q66 0 129 -113z" />
<glyph unicode="&#x2265;" horiz-adv-x="460" d="M332 94q0 -49 -40 -87t-91 -38q-49 0 -84 33t-35 82q0 51 40 88t91 37q49 0 84 -33t35 -82z" />
<glyph unicode="&#x25ca;" horiz-adv-x="974" d="M891 649l-416 -416l-416 416l416 416z" />
<glyph unicode="&#xe000;" horiz-adv-x="1020" d="M0 1020h1020v-1020h-1020v1020z" />
<glyph unicode="&#xf8ff;" horiz-adv-x="1996" />
<glyph unicode="&#xfb01;" horiz-adv-x="1056" d="M969 1004l-158 -1004h-152l158 1004h152zM1047 1307q0 -49 -42 -89t-92 -40q-27 0 -53 18t-26 43q0 10 4 26.5t4 26.5q0 33 -52.5 46.5t-101.5 13.5q-117 0 -198.5 -56.5t-86.5 -167.5q-4 -82 -4 -124h166l-2 -117l-170 -6q-10 -158 -43 -453q-25 -262 -41 -391 q-25 -180 -198 -420l-91 53q121 203 150 475q2 12 37 404q20 213 29 336l-144 18l17 101h133l12 167q12 150 127 215.5t278 65.5q86 0 221.5 -28.5t159.5 -80.5q7 -18 7 -36z" />
<glyph unicode="&#xfb02;" horiz-adv-x="1056" d="M1030 1378l-156 -975q-39 -262 15 -378l-148 -43q-6 18 -13 52t-17.5 146.5t12.5 222.5l143 900q-59 37 -137 46t-149.5 -9.5t-122.5 -74t-54 -137.5l-4 -124h166l-2 -117l-170 -6l-84 -844q-8 -76 -57 -181.5t-96 -170.5l-45 -68l-91 53l36 67t63 167t51 241 q57 610 66 740l-144 18l17 101h133l12 167q10 129 100 199t215 77t246 -11.5t215 -57.5z" />
</font>
</defs>
</svg>
