<?xml version="1.0" standalone="no"?>
<!DOCTYPE svg PUBLIC "-//W3C//DTD SVG 1.1//EN" "http://www.w3.org/Graphics/SVG/1.1/DTD/svg11.dtd" >
<svg xmlns="http://www.w3.org/2000/svg">
<metadata>
This is a custom SVG webfont generated by Font Squirrel.
</metadata>
<defs>
<font id="webfontMPb2iyFP" horiz-adv-x="921" >
<font-face units-per-em="2048" ascent="1638" descent="-410" />
<missing-glyph horiz-adv-x="460" />
<glyph unicode="&#xfb00;" horiz-adv-x="1296" d="M362 889h-169q0 41 5 79t21 83h170l23 110q74 360 403 361q51 0 93 -8.5t71 -20.5q-12 -51 -24.5 -87t-32.5 -75q-20 8 -46 15.5t-61 7.5q-43 0 -75.5 -11.5t-58.5 -40t-45.5 -75.5t-35.5 -121l-12 -55h407l25 110q80 360 410 361q51 0 91 -7.5t72 -17.5 q-12 -53 -25.5 -89t-33.5 -75q-23 8 -48.5 14.5t-55.5 6.5q-43 0 -78 -11.5t-62.5 -40t-49 -75.5t-34.5 -121l-10 -55h252q0 -43 -6 -80t-23 -82h-250l-157 -889q-25 -139 -62 -234.5t-89 -153.5t-122.5 -85t-165.5 -27q-94 0 -153 27q8 47 19.5 85t31.5 75 q23 -8 48.5 -13.5t49.5 -5.5q45 0 82 11.5t64.5 42t49 87t38.5 146.5l166 934h-408l-180 -1008q-18 -106 -55 -179t-89.5 -118t-121 -64.5t-150.5 -19.5q-45 0 -86 7.5t-72 19.5q8 47 20.5 85t33.5 75q20 -8 45.5 -13.5t52.5 -5.5q45 0 82 11.5t65.5 42t51 87t39.5 146.5z " />
<glyph unicode="&#xfb01;" horiz-adv-x="1179" d="M362 889h-169q0 41 5 79t21 83h170l10 59q41 205 148.5 308.5t294.5 103.5q47 0 94 -6.5t89 -16.5t75 -21.5t51 -19.5q-10 -49 -24.5 -87t-36.5 -75q-43 20 -112 39t-134 19q-96 0 -153.5 -52.5t-90.5 -195.5l-12 -55h606l-184 -1051q-25 -4 -53.5 -5t-51.5 -1t-48.5 1 t-47.5 5l158 889h-406l-153 -877q-25 -141 -60 -239.5t-87 -158.5t-125 -87t-171 -27q-45 0 -86 7.5t-72 19.5q8 47 20.5 85t33.5 75q20 -8 45.5 -13.5t52.5 -5.5q55 0 93 13.5t65.5 51.5t49 108.5t42.5 185.5z" />
<glyph unicode="&#xfb02;" horiz-adv-x="1263" d="M362 889h-169q0 41 5 79t21 83h170l23 104q80 367 430 367q51 0 108.5 -7.5t110.5 -17.5t100 -23.5t82 -25.5q6 -41 6 -76q0 -47 -11 -121.5t-24 -142.5l-147 -809q-6 -35 -6 -55q0 -33 9 -52.5t23.5 -28.5t32 -11t33.5 -2q18 0 42 4t40 8q18 -53 19 -127 q0 -8 -1.5 -15.5t-1.5 -13.5q-31 -10 -74.5 -15t-86.5 -5q-53 0 -97.5 10t-76 36.5t-49 70.5t-17.5 110q0 39 8 82l17 84l118 647q16 92 26.5 164t16.5 131q-41 14 -94 23.5t-104 9.5q-49 0 -87 -11.5t-68 -40t-51.5 -75.5t-37.5 -121l-12 -55h252q0 -43 -5.5 -80t-21.5 -82 h-252l-158 -895q-25 -137 -60.5 -231.5t-88.5 -153t-124 -84t-165 -25.5q-45 0 -86 7.5t-72 19.5q8 47 20.5 85t33.5 75q20 -8 45.5 -13.5t52.5 -5.5q49 0 86 12.5t66.5 49.5t52 102.5t41.5 173.5z" />
<glyph unicode="&#xfb03;" horiz-adv-x="1792" d="M362 889h-169q0 41 5 79t21 83h170l10 59q41 205 139.5 308.5t276.5 103.5q51 0 93 -8.5t71 -20.5q-12 -51 -24.5 -87t-32.5 -75q-20 8 -46 15.5t-61 7.5q-43 0 -76.5 -11.5t-58.5 -39t-44.5 -75.5t-35.5 -122l-12 -55h411l13 59q41 205 147.5 308.5t294.5 103.5 q45 0 92 -6.5t89 -16.5t75 -21.5t51 -19.5q-8 -49 -23.5 -87t-37.5 -75q-41 20 -109.5 39t-136.5 19q-96 0 -156.5 -52.5t-87.5 -195.5l-10 -55h604l-184 -1051q-23 -4 -52.5 -5t-51.5 -1q-23 0 -47.5 1t-47.5 5l156 889h-403l-156 -877q-25 -141 -60.5 -238.5t-88 -158.5 t-124 -88t-170.5 -27q-90 0 -159 27q10 47 21.5 85t31.5 75q23 -8 48.5 -13.5t49.5 -5.5q45 0 83 11.5t66.5 42t51.5 87t39 146.5l166 934h-412l-182 -1016q-18 -102 -55 -174t-89.5 -116t-120 -63.5t-149.5 -19.5q-45 0 -86 7.5t-72 19.5q8 47 20.5 85t33.5 75 q20 -8 45.5 -13.5t52.5 -5.5q45 0 82 11.5t65.5 42t51 87t39.5 146.5z" />
<glyph unicode="&#xfb04;" horiz-adv-x="1886" d="M362 889h-169q0 41 5 79t21 83h170l23 110q74 360 403 361q51 0 93 -8.5t71 -20.5q-12 -51 -24.5 -87t-32.5 -75q-20 8 -46 15.5t-61 7.5q-43 0 -76.5 -11.5t-60.5 -39t-46.5 -75.5t-31.5 -122q-4 -14 -6 -27.5t-6 -27.5h422l12 59q2 14 5 26.5t7 24.5q86 360 430 361 q51 0 107.5 -7.5t110 -17.5t101.5 -23.5t83 -25.5q4 -20 4 -38v-38q0 -47 -10.5 -121.5t-22.5 -142.5l-151 -809q-6 -35 -7 -55q0 -33 9.5 -52.5t23.5 -28.5t31.5 -11t34.5 -2q18 0 41.5 4t40.5 8q18 -53 18 -127q0 -8 -1 -15.5t-1 -13.5q-31 -10 -75 -15t-87 -5 q-131 0 -182 60t-51 169q0 74 18 164q14 98 40 226l52 259q27 131 47.5 252t24.5 205q-41 14 -93 23.5t-106 9.5q-49 0 -88 -11.5t-68.5 -39t-51 -75.5t-35.5 -122l-11 -55h250q0 -43 -5 -80t-21 -82h-252l-156 -889q-25 -139 -59.5 -235.5t-86 -155t-124 -84t-170.5 -25.5 q-90 0 -160 27q10 47 21.5 85t31.5 75q20 -8 47 -13.5t52 -5.5q45 0 82.5 11.5t66.5 42t51.5 87t38.5 146.5l166 934h-422l-180 -1008q-18 -106 -55 -179t-89.5 -118t-121 -64.5t-150.5 -19.5q-45 0 -86 7.5t-72 19.5q8 47 20.5 85t33.5 75q20 -8 45.5 -13.5t52.5 -5.5 q45 0 82 11.5t65.5 42t51 87t39.5 146.5z" />
<glyph unicode=" "  horiz-adv-x="460" />
<glyph unicode="&#x09;" horiz-adv-x="460" />
<glyph unicode="&#xa0;" horiz-adv-x="460" />
<glyph unicode="!" horiz-adv-x="567" d="M436 1473q55 6 107 6q53 0 112 -6l-196 -1033q-53 -6 -99 -6q-51 0 -96 6zM172 0q0 117 39 227q29 4 55.5 6.5t55.5 2.5q27 0 54 -2.5t52 -6.5q0 -59 -10 -113.5t-27 -113.5q-29 -4 -56.5 -6t-53.5 -2q-29 0 -56.5 2t-52.5 6z" />
<glyph unicode="&#x22;" horiz-adv-x="796" d="M737 1470q23 4 49.5 6.5t51.5 2.5q55 0 94 -9l-97 -561q-49 -6 -98 -6q-55 0 -98 6zM348 1470q23 4 49.5 6.5t51.5 2.5q55 0 94 -9l-97 -561q-49 -6 -98 -6q-55 0 -98 6z" />
<glyph unicode="#" horiz-adv-x="1462" d="M184 483q4 27 10.5 52.5t12.5 54.5h258l88 338h-246l9 81q5 44 20 78h260l84 326q29 4 50.5 5t47.5 1h42q22 0 44 -4l-84 -328h332l84 326q29 4 51.5 5t44.5 1h44q22 0 46 -4l-84 -328h232l-11.5 -78.5t-17.5 -80.5h-244l-88 -338h230q0 -76 -27 -162h-244l-94 -369 q-29 -4 -51 -5t-47 -1q-20 0 -43 1t-43 5l94 369h-332l-94 -369q-29 -4 -50.5 -5t-47.5 -1q-45 0 -90 6l48 185l46 184h-246zM985 590l86 338h-332l-86 -338h332z" />
<glyph unicode="$" horiz-adv-x="1228" d="M512 -25h-8q-98 0 -194.5 19.5t-159.5 48.5q8 45 21 91t36 93q74 -31 147.5 -49t171.5 -18q162 0 255 71.5t93 194.5q0 90 -57 148.5t-174 119.5q-66 35 -121 71t-94 79t-60.5 95t-21.5 124q0 170 112.5 278.5t317.5 128.5l31 183q33 8 72 8q16 0 35.5 -2t35.5 -6 l-30 -176q86 -4 153.5 -21.5t128.5 -40.5q-6 -43 -20.5 -88t-40.5 -86q-53 27 -124 45.5t-163 18.5q-59 0 -112.5 -11.5t-92.5 -37t-61.5 -64.5t-22.5 -94q0 -78 56.5 -132.5t166.5 -113.5q76 -41 135.5 -80t99.5 -84t60.5 -98t20.5 -125q0 -90 -30 -169t-87 -141.5 t-140 -104.5t-190 -60l-39 -232q-33 -8 -71 -8q-41 0 -72 8z" />
<glyph unicode="%" horiz-adv-x="2019" d="M1581 1450q25 4 55.5 6t57.5 2t55.5 -2t50.5 -6l-1134 -1448q-29 -4 -53.5 -6t-49.5 -2q-27 0 -58.5 2t-56.5 6zM1593 125q61 0 104.5 35.5t71 91t41 120t13.5 121.5q0 203 -142 203q-61 0 -103 -37t-69.5 -92t-40 -120.5t-12.5 -123.5q0 -198 137 -198zM1575 -23 q-160 0 -234.5 96.5t-74.5 243.5q0 96 26.5 190.5t80.5 170t136 122t193 46.5q80 0 139 -26t97 -71t56.5 -108.5t18.5 -137.5q0 -102 -28.5 -196t-84 -168t-137.5 -118t-188 -44zM561 752q61 0 104.5 35.5t71 91t41 120t13.5 121.5q0 203 -142 203q-61 0 -103 -37t-69.5 -92 t-40 -120.5t-12.5 -123.5q0 -198 137 -198zM543 604q-160 0 -234.5 96.5t-74.5 243.5q0 96 26.5 190.5t80.5 170t136 122t193 46.5q80 0 139 -26t97 -71t56.5 -108.5t18.5 -137.5q0 -102 -28.5 -196t-84 -168t-137.5 -118t-188 -44z" />
<glyph unicode="&#x26;" horiz-adv-x="1478" d="M1186 942q10 53 18 108.5t8 114.5v33q41 20 98.5 30.5t98.5 10.5q2 -18 3 -36.5t1 -39.5q0 -63 -16 -157l-13 -64h209q-4 -45 -11 -84t-19 -82h-207l-47 -264q-51 -283 -209 -410t-430 -127q-106 0 -194.5 24t-153 73t-100.5 124.5t-36 180.5q0 86 26 160.5t71 136 t105.5 106.5t131.5 70q-23 12 -50.5 32.5t-50 51.5t-37.5 73t-15 95q0 98 41 172t106.5 123t148 73.5t168.5 24.5q70 0 135.5 -9t123.5 -32q-6 -45 -17.5 -82t-34.5 -74q-51 16 -100 25.5t-109 9.5q-111 0 -182.5 -57t-71.5 -162q0 -92 60.5 -132t142.5 -40h408zM1155 776 h-348q-184 0 -288.5 -102.5t-104.5 -272.5q0 -113 68.5 -179t215.5 -66q111 0 183.5 29.5t121 83t74 126t39.5 156.5z" />
<glyph unicode="'" horiz-adv-x="407" d="M348 1470q23 4 49.5 6.5t51.5 2.5q55 0 94 -9l-97 -561q-49 -6 -98 -6q-55 0 -98 6z" />
<glyph unicode="(" horiz-adv-x="677" d="M352 -340q-41 96 -71.5 253t-30.5 349q0 127 18.5 260t50 263t74.5 253t92.5 227.5t101.5 187.5t103 134q16 4 40 6t56 2q29 0 56.5 -2t50.5 -6q-66 -92 -142.5 -225t-142 -302t-108.5 -370t-43 -428q0 -115 10 -211t25.5 -173t32 -132t28.5 -86q-27 -4 -54.5 -6 t-56.5 -2q-27 0 -50.5 2t-39.5 6z" />
<glyph unicode=")" horiz-adv-x="692" d="M-16 -340q66 92 141.5 224t141 300t108.5 370t43 429q0 115 -10.5 212t-25.5 174t-31.5 132t-28.5 86q27 4 54 6t56 2q27 0 49.5 -2t38.5 -6q41 -96 73 -253.5t32 -350.5q0 -190 -40 -392t-103.5 -383t-142.5 -325.5t-155 -222.5q-23 -4 -45 -6t-51 -2t-56.5 2t-47.5 6z " />
<glyph unicode="*" horiz-adv-x="974" d="M678 1473q31 6 63 6q29 0 64 -6l-31 -267q-23 -4 -42 -5t-40 -1q-20 0 -39.5 1t-38.5 5zM260 1126q20 61 64 121l243 -67q-14 -41 -32.5 -79t-40.5 -73zM502 985q29 -16 58.5 -39.5t53.5 -52.5l-206 -207q-27 16 -49.5 33.5t-39.5 42.5zM811 1180l268 67q18 -49 19 -104 v-17l-267 -98q-10 31 -15 65.5t-5 69.5v17zM662 893q72 57 145 92l104 -223q-27 -25 -55.5 -42.5t-60.5 -33.5z" />
<glyph unicode="+" horiz-adv-x="1228" d="M621 629h-336q0 41 6 87t22 93h340l66 373q23 4 46 6t48 2q23 0 47.5 -2t46.5 -6l-65 -373h336q0 -45 -6.5 -88t-22.5 -92h-340l-66 -373q-41 -8 -94 -8q-25 0 -48 2t-46 6z" />
<glyph unicode="," horiz-adv-x="483" d="M217 223q25 6 50.5 8t49.5 2q27 0 53.5 -2t49.5 -8l-201 -452q-27 -4 -52.5 -6.5t-47.5 -2.5q-55 0 -96 9z" />
<glyph unicode="-" horiz-adv-x="712" d="M748 684q0 -43 -9.5 -94t-23.5 -94h-516q4 96 32 188h517z" />
<glyph unicode="." horiz-adv-x="481" d="M125 0q0 57 11 113.5t28 113.5q29 4 57.5 6.5t57.5 2.5t57.5 -2.5t54.5 -6.5q0 -59 -10 -113.5t-27 -113.5q-33 -4 -60.5 -6t-55.5 -2q-29 0 -56.5 2t-56.5 6z" />
<glyph unicode="/" horiz-adv-x="761" d="M778 1473q47 8 101 8q25 0 52 -2t52 -6l-733 -1473q-27 -4 -55.5 -6t-53.5 -2q-23 0 -47 2t-47 6z" />
<glyph unicode="0" horiz-adv-x="1228" d="M616 -25q-121 0 -202.5 41t-131 107.5t-71 151.5t-21.5 174q0 166 42 325.5t124 285.5t203 203.5t279 77.5q121 0 202.5 -40.5t131 -108.5t71 -153t21.5 -173q0 -166 -42 -325.5t-124 -285.5t-203 -203t-279 -77zM635 154q96 0 173 61t131 161.5t83 230.5t29 265 q0 57 -11.5 109.5t-38 92.5t-70.5 63.5t-112 23.5q-98 0 -175 -60.5t-130 -160.5t-82 -230t-29 -268q0 -55 11.5 -107t38 -92t70.5 -64.5t112 -24.5z" />
<glyph unicode="1" horiz-adv-x="1228" d="M594 174l149 862l-286 -129q-25 41 -40.5 81t-19.5 83l568 260h39l-205 -1157h297q0 -41 -8.5 -87t-20.5 -87h-817q0 43 8 90t21 84h315z" />
<glyph unicode="2" horiz-adv-x="1228" d="M569 475l137 138q62 65 106 127.5t69.5 125t25.5 127.5q0 76 -51 122t-162 46q-88 0 -158.5 -24.5t-138.5 -53.5q-39 76 -43 172q78 31 171 58.5t210 27.5q186 0 292 -85t106 -238q0 -86 -30 -164t-81 -152.5t-119.5 -147.5t-148.5 -148l-236 -228h539q0 -45 -9.5 -92 t-21.5 -86h-903q-4 16 -8 25z" />
<glyph unicode="3" horiz-adv-x="1228" d="M428 612l440 527h-518q0 45 9.5 93t21.5 89h817l10 -25l-467 -555q176 -10 261 -107t85 -243q0 -127 -47 -227.5t-130 -170t-194.5 -106.5t-238.5 -37q-92 0 -191.5 17.5t-176.5 54.5q10 41 27.5 84t39.5 84q59 -29 142 -46t163 -17q82 0 153 22.5t123 67.5t82.5 110.5 t30.5 151.5q0 63 -21.5 105t-56 68t-81.5 36t-99 10q-41 0 -84 -3t-86 -13z" />
<glyph unicode="4" horiz-adv-x="1228" d="M117 182l762 1178q47 -6 92 -26.5t76 -49.5l-609 -944h393l72 405q23 4 51.5 6.5t53.5 2.5q23 0 50 -2t48 -7l-72 -405h178q0 -45 -8 -93t-22 -87h-178l-52 -281q-23 -4 -51.5 -5t-50.5 -1q-25 0 -52.5 1t-47.5 5l51 281h-674z" />
<glyph unicode="5" horiz-adv-x="1228" d="M356 596l156 725h672q0 -45 -9.5 -93t-21.5 -89h-485l-78 -371q39 8 71.5 10t55.5 2q92 0 161.5 -27.5t117.5 -74.5t73 -111.5t25 -140.5q0 -139 -51.5 -245.5t-138.5 -180.5t-201.5 -112t-241.5 -38q-98 0 -180 17.5t-148 46.5q10 43 26.5 89t39.5 85q59 -23 121.5 -41 t154.5 -18q80 0 151.5 22.5t126 68.5t86 115.5t31.5 161.5q0 102 -62.5 158.5t-191.5 56.5q-78 0 -135 -10t-104 -29z" />
<glyph unicode="6" horiz-adv-x="1228" d="M1165 1491q12 -47 13 -96q0 -16 -1 -31.5t-6 -44.5q-121 -10 -226 -48t-191 -102.5t-149.5 -155.5t-100.5 -208q53 63 138 107t204 44q76 0 140.5 -23.5t111.5 -69.5t73.5 -114.5t26.5 -160.5q0 -139 -46 -253t-124 -194t-180.5 -123t-214.5 -43q-109 0 -187.5 34 t-129 93.5t-74 141.5t-23.5 178q0 186 61.5 368.5t181.5 331t296 247.5t407 122zM653 150q80 0 142.5 35.5t105.5 94t64.5 132t21.5 147.5q0 115 -57.5 170t-165.5 55q-63 0 -122.5 -27.5t-106 -79.5t-74 -125t-27.5 -165q0 -98 52 -167.5t167 -69.5z" />
<glyph unicode="7" horiz-adv-x="1228" d="M989 1139h-651q0 43 8 95t23 87h936l8 -16l-850 -1459q-63 16 -104.5 36t-77.5 55z" />
<glyph unicode="8" horiz-adv-x="1228" d="M559 782q-31 18 -61.5 43t-56 61t-42 81t-16.5 104q0 84 38 156.5t103.5 127t153.5 86.5t186 32q76 0 144.5 -18.5t120 -57.5t82 -96.5t30.5 -135.5q0 -68 -23.5 -126t-63.5 -107t-93 -87t-115 -67q45 -25 86 -55.5t73 -72.5t50.5 -94t18.5 -118q0 -109 -45.5 -194.5 t-121 -145t-176 -91.5t-208.5 -32q-90 0 -169 18.5t-138.5 58.5t-93.5 105.5t-34 157.5q0 82 30 153t80 129t117.5 104t143.5 81zM725 696q-68 -23 -126 -57.5t-101 -79.5t-67.5 -98t-24.5 -115q0 -104 64.5 -151.5t168.5 -47.5q74 0 133 21.5t100 59.5t63.5 90.5 t22.5 111.5q0 96 -67.5 160.5t-165.5 105.5zM780 860q121 43 189.5 111.5t68.5 171.5q0 86 -56 127t-132 41q-63 0 -112.5 -19.5t-83 -52.5t-51 -76t-17.5 -92q0 -47 20.5 -83t50 -60.5t63 -41t60.5 -26.5z" />
<glyph unicode="9" horiz-adv-x="1228" d="M260 0q252 31 430 153.5t250 360.5q-53 -66 -139 -109t-209 -43q-74 0 -136.5 26t-109.5 74t-73.5 116.5t-26.5 156.5q0 137 45 248t121.5 189.5t178 121.5t212.5 43q109 0 187.5 -33.5t129.5 -93t76 -140.5t25 -177q0 -117 -23.5 -239t-73 -237.5t-126 -218t-182 -182 t-243 -130t-307.5 -60.5q-12 49 -12 108q0 35 6 66zM676 532q63 0 123.5 28t107.5 78t76 124t29 166q0 49 -13.5 91t-41 73.5t-68.5 50t-98 18.5q-82 0 -144.5 -33.5t-104.5 -91t-63.5 -130t-21.5 -148.5q0 -117 57.5 -171.5t161.5 -54.5z" />
<glyph unicode=":" horiz-adv-x="481" d="M258 758q0 57 11 113.5t28 113.5q29 4 57.5 6.5t57.5 2.5t57.5 -2.5t54.5 -6.5q0 -59 -10 -113.5t-27 -113.5q-33 -4 -60.5 -6t-55.5 -2q-29 0 -56.5 2t-56.5 6zM125 0q0 57 11 113.5t28 113.5q29 4 57.5 6.5t57.5 2.5t57.5 -2.5t54.5 -6.5q0 -59 -10 -113.5t-27 -113.5 q-33 -4 -60.5 -6t-55.5 -2q-29 0 -56.5 2t-56.5 6z" />
<glyph unicode=";" horiz-adv-x="483" d="M178 223q25 6 50.5 8t49.5 2q27 0 53.5 -2t49.5 -8l-201 -452q-27 -4 -52.5 -6.5t-47.5 -2.5q-55 0 -96 9zM281 758q0 57 11 113.5t28 113.5q29 4 57.5 6.5t57.5 2.5t57.5 -2.5t54.5 -6.5q0 -59 -10 -113.5t-27 -113.5q-33 -4 -60.5 -6t-55.5 -2q-29 0 -56.5 2t-56.5 6z " />
<glyph unicode="&#x3c;" horiz-adv-x="1228" d="M1249 1161q0 -57 -10 -115.5t-22 -93.5l-699 -254l608 -258q0 -53 -11 -104t-25 -86l-773 346q0 121 37 217z" />
<glyph unicode="=" horiz-adv-x="1228" d="M1139 602q0 -45 -6.5 -89t-22.5 -91h-852q0 84 29 180h852zM1208 997q0 -41 -6 -86t-24 -94h-852q0 41 6 86t24 94h852z" />
<glyph unicode="&#x3e;" horiz-adv-x="1228" d="M985 715l-606 252q0 47 8 96t27 96l774 -346q0 -47 -9.5 -107.5t-29.5 -109.5l-895 -348q0 20 2 48t7 57.5t11.5 57t12.5 46.5z" />
<glyph unicode="?" horiz-adv-x="954" d="M463 770l76 21q57 16 110 44.5t94 69.5t64.5 93.5t23.5 115.5q0 94 -65.5 143.5t-175.5 49.5q-78 0 -134.5 -13.5t-121.5 -36.5q-14 35 -24.5 83.5t-10.5 89.5q94 35 175 45t161 10q102 0 181 -25.5t131 -72t79 -108.5t27 -136q0 -90 -34 -169t-92.5 -142.5t-134 -110.5 t-157.5 -72l-35 -211q-53 -6 -98 -6q-25 0 -49.5 1t-46.5 5zM311 2q2 59 11.5 116.5t29.5 110.5q29 4 57.5 7.5t57.5 3.5q27 0 55.5 -3.5t57.5 -7.5q-2 -61 -11.5 -116.5t-29.5 -110.5q-29 -4 -57.5 -6t-57.5 -2t-56.5 2t-56.5 6z" />
<glyph unicode="@" horiz-adv-x="2023" d="M1405 291q20 -16 50 -21.5t58 -5.5q86 0 152 50.5t112 129t69.5 174t23.5 187.5q0 260 -153.5 395t-432.5 135q-213 0 -379 -74.5t-279.5 -199.5t-173 -285t-59.5 -330q0 -160 46 -274.5t126 -187t188.5 -107.5t233.5 -35q98 0 187.5 15.5t160.5 42.5q12 -29 23.5 -65 t21.5 -79q-72 -35 -183.5 -52t-244.5 -17q-156 0 -292 45t-238.5 138t-161.5 234.5t-59 333.5q0 184 65.5 371.5t200.5 340.5t343 249t495 96q156 0 292 -42t236 -128t158.5 -216t58.5 -304q0 -127 -38 -250t-109.5 -221t-174 -158.5t-231.5 -60.5q-72 0 -128 15t-97 48 q-59 -35 -133 -55.5t-164 -20.5q-141 0 -228.5 87t-87.5 239q0 139 47.5 257t127 203t187 133t228.5 48q82 0 157 -12.5t146 -34.5zM1333 893q-27 6 -49 9t-47 3q-82 0 -150.5 -33.5t-118.5 -93t-78 -139.5t-28 -172q0 -104 46 -153.5t139 -49.5q47 0 85.5 8.5t86.5 30.5z " />
<glyph unicode="A" horiz-adv-x="1226" d="M741 1473q27 4 65 5t66 1q31 0 63 -1t56 -5l201 -1473q-59 -6 -119 -6q-49 0 -100 6l-39 346h-496l-149 -346q-49 -6 -111 -6q-29 0 -56.5 1t-49.5 5zM913 526l-84 711l-311 -711h395z" />
<glyph unicode="B" horiz-adv-x="1185" d="M449 1473q51 8 138 15t163 7q104 0 189 -17.5t145.5 -56.5t94 -98t33.5 -145q0 -76 -24.5 -141.5t-65.5 -116t-93 -84t-107 -48.5q111 -18 182.5 -100t71.5 -209q0 -135 -52.5 -231t-142.5 -156.5t-210 -88.5t-255 -28q-78 0 -163 7.5t-163 17.5zM426 160q25 -4 59.5 -6 t73.5 -2q68 0 138.5 13t129 48t95 96.5t36.5 157.5q0 61 -20 103t-57 68t-88.5 37t-112.5 11h-160zM692 858q137 0 221 76t84 211q0 102 -63.5 144t-175.5 42q-35 0 -70 -2t-57 -6l-82 -465h143z" />
<glyph unicode="C" horiz-adv-x="1181" d="M1112 217q39 -74 45 -174q-41 -18 -88 -30.5t-96 -20.5t-97.5 -12.5t-87.5 -4.5q-268 0 -412.5 152t-144.5 418q0 184 51.5 356t153 304t251 212t345.5 80q109 0 185.5 -15.5t130.5 -37.5q-10 -47 -23.5 -86t-40.5 -86q-59 23 -116.5 33t-129.5 10q-152 0 -262 -63.5 t-181 -169t-104.5 -240.5t-33.5 -279q0 -199 97 -301t282 -102q78 0 144 14t132 43z" />
<glyph unicode="D" horiz-adv-x="1400" d="M449 1473q33 4 73.5 8t83.5 7t84 5t78 2q172 0 297 -43t205 -122t117.5 -189.5t37.5 -245.5q0 -195 -56 -361.5t-166.5 -291.5t-275.5 -196t-382 -71q-111 0 -202 7.5t-153 17.5zM430 172q27 -4 75 -7t93 -3q141 0 254 53t190.5 147.5t118.5 223.5t41 280 q0 217 -100.5 332t-325.5 115q-41 0 -76.5 -3t-70.5 -7z" />
<glyph unicode="E" horiz-adv-x="1073" d="M446 1473h781q0 -92 -33 -185h-569l-74 -420h455q0 -94 -33 -184h-455l-44 -251l-44 -251h586l-10.5 -92t-22.5 -90h-795z" />
<glyph unicode="F" horiz-adv-x="1015" d="M446 1473h744q-6 -53 -10 -95.5t-23 -89.5h-532l-76 -432h446q-4 -96 -32 -184h-447l-117 -672q-53 -6 -106 -6q-29 0 -55.5 1t-49.5 5z" />
<glyph unicode="G" horiz-adv-x="1345" d="M1118 760q25 4 52.5 6t52.5 2q29 0 54.5 -2t49.5 -6l-64 -358l-63 -357q-80 -33 -192.5 -51.5t-216.5 -18.5q-133 0 -237.5 41t-176.5 116t-109 180.5t-37 232.5q0 188 50.5 360t152 304t251 210t349.5 78q102 0 181 -16.5t133 -38.5q-10 -47 -23.5 -86t-40.5 -86 q-57 23 -114.5 33t-133.5 10q-152 0 -261 -63.5t-180 -169t-104.5 -240.5t-33.5 -279q0 -205 98 -303t272 -98q51 0 101.5 7t87.5 21z" />
<glyph unicode="H" horiz-adv-x="1363" d="M449 1473q25 4 51 6t55 2q25 0 52.5 -2t51.5 -6l-106 -607h565l105 607q25 4 51 6t55 2q25 0 53.5 -2t51.5 -6l-258 -1473q-25 -4 -52.5 -6t-56.5 -2t-54.5 2t-47.5 6l118 682h-563l-119 -682q-25 -4 -53.5 -6t-54.5 -2q-29 0 -54.5 2t-48.5 6z" />
<glyph unicode="I" horiz-adv-x="589" d="M449 1473q27 4 53 6t53 2q29 0 54.5 -2t49.5 -6l-258 -1473q-29 -4 -54 -6t-54 -2t-54.5 2t-48.5 6z" />
<glyph unicode="J" horiz-adv-x="806" d="M643 1290h-246q0 45 7.5 92.5t23.5 90.5h455l-187 -1063q-23 -123 -57.5 -207t-87.5 -134.5t-127 -72t-174 -21.5q-57 0 -102.5 7.5t-84.5 19.5q4 47 12.5 92t30.5 86q23 -6 59 -14t77 -8q43 0 80.5 6t68.5 27.5t53.5 62.5t34.5 108z" />
<glyph unicode="K" horiz-adv-x="1193" d="M449 1473q51 6 106 6q53 0 102 -6l-258 -1473q-53 -6 -106 -6q-57 0 -103 6zM594 748l563 725q31 4 58.5 5t52.5 1q27 0 61.5 -1t63.5 -5l-570 -723l353 -750q-66 -6 -117 -6q-49 0 -111 6z" />
<glyph unicode="L" horiz-adv-x="1003" d="M446 1473q25 4 52.5 6t56.5 2q27 0 51.5 -2t48.5 -6l-225 -1289h549q-4 -53 -10 -96t-25 -88h-756z" />
<glyph unicode="M" horiz-adv-x="1640" d="M487 1473q27 4 59 6t60 2q29 0 55.5 -2t51.5 -6l200 -912l523 912q23 4 53.5 6t58.5 2q29 0 57.5 -2t51.5 -6l-189 -1473q-27 -4 -52 -6t-52 -2q-29 0 -53.5 2t-44.5 6l151 1120l-471 -815q-47 -6 -84 -6q-41 0 -80 6l-184 819l-240 -1124q-23 -4 -47 -6t-51 -2 q-25 0 -49.5 2t-46.5 6z" />
<glyph unicode="N" horiz-adv-x="1370" d="M446 1473q23 4 50.5 5t50.5 1q51 0 92 -6l414 -1111l192 1111l40 4q19 2 40 2h49l66 -6l-258 -1473q-23 -4 -48.5 -5t-50.5 -1q-23 0 -46 1t-46 5l-416 1104l-190 -1104q-41 -6 -80 -6h-51l-66 6z" />
<glyph unicode="O" horiz-adv-x="1435" d="M715 -25q-123 0 -214 39t-151.5 110t-90.5 171t-30 221q0 188 49.5 365.5t144.5 313.5t234.5 219t317.5 83q123 0 215 -41t151.5 -112.5t89 -172t29.5 -219.5q0 -193 -50 -368.5t-145.5 -311t-233.5 -216.5t-316 -81zM737 156q121 0 214 70.5t158 184t98.5 256 t33.5 283.5q0 166 -68.5 264.5t-222.5 98.5q-123 0 -217 -69.5t-157.5 -182.5t-96.5 -255t-33 -288q0 -172 70.5 -267t220.5 -95z" />
<glyph unicode="P" horiz-adv-x="1159" d="M449 1475q63 8 145 15t154 7q96 0 186 -18.5t159.5 -63.5t111.5 -120.5t42 -190.5q0 -139 -47 -245.5t-129 -179.5t-195.5 -111t-244.5 -38q-82 0 -137 7l-95 -537q-53 -6 -106 -6t-103 6zM526 719q29 -4 55.5 -6t63.5 -2q82 0 151.5 21.5t121 65.5t80 114.5t28.5 168.5 q0 137 -78 187.5t-211 50.5q-27 0 -53.5 -2t-54.5 -6z" />
<glyph unicode="Q" horiz-adv-x="1435" d="M1343 -133q-4 -47 -18 -93t-33 -81l-454 84q4 43 17 87t36 85zM715 -25q-123 0 -214 39t-151.5 110t-90.5 171t-30 221q0 188 49.5 365.5t144.5 313.5t234.5 219t317.5 83q123 0 215 -41t151.5 -112.5t89 -172t29.5 -219.5q0 -193 -50 -368.5t-145.5 -311t-233.5 -216.5 t-316 -81zM737 156q121 0 214 70.5t158 184t98.5 256t33.5 283.5q0 166 -68.5 264.5t-222.5 98.5q-123 0 -217 -69.5t-157.5 -182.5t-96.5 -255t-33 -288q0 -172 70.5 -267t220.5 -95z" />
<glyph unicode="R" horiz-adv-x="1177" d="M449 1475q78 12 149.5 17t140.5 5q92 0 180.5 -18.5t157 -61.5t109.5 -113.5t41 -177.5q0 -109 -35 -190.5t-87 -142t-114.5 -101.5t-116.5 -65l269 -627q-61 -6 -119 -6q-59 0 -111 6l-284 686l20 6q12 2 44 14.5t72 35t83 54t79 75.5t58.5 98.5t22.5 122.5 q0 123 -70 176t-193 53q-33 0 -58 -2t-58 -6l-232 -1313q-25 -2 -52.5 -4t-53.5 -2q-25 0 -52.5 1t-50.5 5z" />
<glyph unicode="S" horiz-adv-x="1089" d="M166 223q76 -27 149.5 -45t161.5 -18q174 0 267.5 76.5t93.5 205.5q0 84 -54.5 141.5t-165.5 116.5q-68 37 -123 75t-94 81t-60.5 96.5t-21.5 120.5q0 96 37 174t105.5 133.5t165 86t215.5 30.5q111 0 190.5 -16.5t151.5 -44.5q-8 -43 -23.5 -88t-42.5 -86 q-53 25 -119.5 43t-152.5 18q-66 0 -121 -12.5t-96 -37t-64.5 -64.5t-23.5 -95q0 -82 49 -136t151 -110q76 -41 136.5 -79.5t102.5 -84t64.5 -100.5t22.5 -129q0 -113 -42 -205t-120 -157.5t-188.5 -101.5t-249.5 -36q-113 0 -203 17.5t-166 46.5q17 90 68 184z" />
<glyph unicode="T" horiz-adv-x="1054" d="M641 1290h-365q0 45 8.5 90t24.5 93h940q0 -47 -8 -91.5t-24 -91.5h-365l-225 -1290q-53 -6 -109 -6q-27 0 -53.5 1t-48.5 5z" />
<glyph unicode="U" horiz-adv-x="1357" d="M434 1473q27 4 54.5 6t54.5 2t52.5 -2t49.5 -6l-147 -836q-25 -141 -25 -240q0 -125 52.5 -179t181.5 -54q88 0 150.5 29.5t105.5 89t71.5 148.5t48.5 206l146 836q29 4 54.5 6t53.5 2q25 0 52.5 -2t50.5 -6l-156 -887q-27 -147 -71 -262t-114.5 -192t-174 -117 t-248.5 -40q-211 0 -314.5 100.5t-103.5 311.5q0 47 6 100.5t17 112.5z" />
<glyph unicode="V" horiz-adv-x="1249" d="M311 1473q25 4 55.5 6t61.5 2q27 0 54.5 -2t52.5 -6l143 -1235l541 1235q25 4 54.5 6t57.5 2q29 0 58.5 -2t52.5 -6l-676 -1473q-29 -4 -65.5 -6t-65.5 -2q-31 0 -62.5 2t-58.5 6z" />
<glyph unicode="W" horiz-adv-x="1826" d="M326 1473q29 4 63.5 5t69.5 1q45 0 86 -6l26 -1201l484 1201q27 4 58.5 5t57.5 1q23 0 51.5 -1t51.5 -5l80 -1213l438 1213q49 6 106 6q27 0 55.5 -1t51.5 -5l-582 -1473q-25 -4 -58.5 -5t-61.5 -1q-29 0 -62 1t-59 5l-80 1128l-469 -1128q-27 -4 -62.5 -5t-64.5 -1 q-25 0 -56.5 1t-54.5 5z" />
<glyph unicode="X" horiz-adv-x="1243" d="M532 772l-188 701q57 6 117 6q47 0 100 -6l180 -707l-452 -766q-31 -4 -63.5 -5t-59.5 -1q-57 0 -113 6zM758 766l420 707q55 6 110 6q61 0 117 -6l-434 -703l241 -770q-59 -6 -112 -6q-49 0 -107 6z" />
<glyph unicode="Y" horiz-adv-x="1124" d="M553 537l-281 936q29 4 67 5t73 1q43 0 84 -6l196 -723l422 723q55 6 117 6q27 0 56.5 -1t51.5 -5l-579 -943l-92 -530q-55 -6 -109 -6q-57 0 -102 6z" />
<glyph unicode="Z" horiz-adv-x="1085" d="M66 16l860 1272h-596q0 96 32 185h898l8 -21l-858 -1270h622q0 -51 -8 -96t-25 -86h-923z" />
<glyph unicode="[" horiz-adv-x="700" d="M449 1556h430q0 -41 -7.5 -85t-21.5 -80h-232l-274 -1569h229q-2 -39 -8 -82t-20 -84h-430z" />
<glyph unicode="\" horiz-adv-x="837" d="M281 1473q29 4 52 6t50 2q25 0 49.5 -2t48.5 -6l328 -1473q-47 -8 -100 -8q-25 0 -50.5 2t-50.5 6z" />
<glyph unicode="]" horiz-adv-x="673" d="M264 -176l277 1567h-230q0 80 29 165h430l-334 -1900h-430q0 41 7 85t22 83h229z" />
<glyph unicode="^" horiz-adv-x="1081" d="M680 1470q27 4 53.5 6.5t50.5 2.5q29 0 55.5 -2t53.5 -7l186 -716q-29 -4 -52 -5t-46 -1t-46.5 1t-45.5 5l-135 530l-318 -532q-23 -4 -50 -4h-50q-20 0 -44 1t-50 5z" />
<glyph unicode="_" horiz-adv-x="995" d="M977 -29q0 -45 -7 -80.5t-18 -70.5h-968q0 4 -1 10t-1 10q0 29 5 61.5t19 69.5h971z" />
<glyph unicode="`" horiz-adv-x="1024" d="M512 1477q31 4 61.5 6t65.5 2t68.5 -2t64.5 -6l189 -260q-47 -8 -99 -9q-31 0 -57.5 2t-48.5 7z" />
<glyph unicode="a" horiz-adv-x="1134" d="M932 895q-25 6 -51.5 8t-59.5 2q-102 0 -183 -47t-139.5 -126t-89 -178t-30.5 -204q0 -98 35 -152.5t104 -54.5q63 0 122.5 41t109 114t85 170t56.5 208zM1049 446q-23 -123 -36.5 -211t-13.5 -153q0 -27 1 -42t6 -38q-23 -4 -49.5 -6t-49.5 -2q-20 0 -44.5 2t-47.5 6 q-4 23 -6 46.5t-2 57.5q0 23 5 62t11 70q-23 -45 -59.5 -91.5t-84.5 -84t-108.5 -62.5t-130.5 -25q-135 0 -203.5 89.5t-68.5 242.5q0 145 45 283.5t133 246t219 173t305 65.5q74 0 149 -11t132 -32z" />
<glyph unicode="b" horiz-adv-x="1169" d="M397 160q23 -6 55.5 -10.5t61.5 -4.5q94 0 175 39t139.5 107.5t92 163t33.5 204.5q0 111 -46 175.5t-136 64.5q-53 0 -102 -22.5t-91 -71.5t-75 -128t-51 -194zM358 1081l30.5 196t12.5 148v41q0 14 -2 35q23 4 54.5 6t54.5 2q20 0 46 -1t48 -5q2 -20 3 -37.5t1 -38.5 q0 -47 -10 -122.5t-23 -141.5l-47 -268q27 37 58.5 69.5t72.5 57.5t92.5 39t116.5 14q141 0 223 -99t82 -280q0 -145 -44 -275t-133 -229.5t-223 -158t-314 -58.5q-78 0 -156 14.5t-129 35.5z" />
<glyph unicode="c" horiz-adv-x="940" d="M862 184q16 -29 25.5 -68.5t9.5 -90.5q-59 -25 -137 -37.5t-142 -12.5q-225 0 -331.5 111t-106.5 309q0 123 40 245t119 219t192.5 156.5t261.5 59.5q68 0 129 -12t106 -29q-2 -39 -16.5 -85t-36.5 -81q-41 16 -89 27.5t-102 11.5q-100 0 -173.5 -44t-123 -114.5 t-73 -158.5t-23.5 -174q0 -139 68.5 -206t189.5 -67q53 0 105.5 9t107.5 32z" />
<glyph unicode="d" horiz-adv-x="1130" d="M934 895q-25 6 -51.5 8t-59.5 2q-102 0 -183 -47t-139.5 -126t-89 -178t-30.5 -204q0 -98 35 -152.5t104 -54.5q63 0 122.5 41t109 114t86 170t57.5 208zM1053 446q-23 -123 -35 -211t-12 -153v-42q0 -15 4 -38q-23 -4 -48.5 -6t-48.5 -2t-47 2t-45 6q-4 16 -7 35.5 t-3 54.5q0 25 5 69t15 81q-25 -45 -61.5 -92.5t-85.5 -86t-109.5 -63.5t-130.5 -25q-135 0 -204.5 89.5t-69.5 242.5q0 145 45 283.5t133 246t220 173t304 65.5q23 0 47.5 -2t41.5 -4q23 119 35 205t12 151v41q0 14 -2 35q23 4 54.5 6t53.5 2q20 0 46 -1t46 -5q6 -41 6 -76 q0 -47 -9 -120.5t-21 -141.5z" />
<glyph unicode="e" horiz-adv-x="1019" d="M381 418q6 -137 69.5 -207t196.5 -70q82 0 156 19.5t133 42.5q18 -31 26.5 -74t8.5 -86q-31 -14 -75 -26.5t-92 -21.5t-97.5 -14.5t-90.5 -5.5q-121 0 -203.5 32t-135 88.5t-76 133t-23.5 166.5q0 125 42 247t121 218t188.5 155.5t244.5 59.5t214 -66.5t79 -177.5 q0 -90 -44 -156.5t-122 -113.5t-183.5 -77.5t-230.5 -49.5zM510 590q104 18 173 41.5t110 51.5t57 58.5t16 67.5q0 47 -32.5 76.5t-94.5 29.5q-66 0 -121 -29.5t-99 -77.5t-74.5 -110.5t-47.5 -128.5z" />
<glyph unicode="f" horiz-adv-x="688" d="M362 889h-169q0 41 5 79t21 83h170l10 59q35 207 136.5 309.5t285.5 102.5q53 0 92 -7.5t72 -17.5q-12 -53 -25.5 -89t-33.5 -75q-23 8 -47.5 14.5t-57.5 6.5q-43 0 -77.5 -11.5t-62.5 -39t-48.5 -75.5t-32.5 -122q-4 -14 -6 -27.5t-6 -27.5h252q0 -43 -5.5 -80 t-21.5 -82h-252l-158 -895q-25 -137 -60.5 -231.5t-88.5 -153t-124 -84t-165 -25.5q-45 0 -86 7.5t-72 19.5q8 47 20.5 85t33.5 75q20 -8 45.5 -13.5t52.5 -5.5q47 0 85 12.5t66.5 49.5t52 103.5t42.5 172.5z" />
<glyph unicode="g" horiz-adv-x="1126" d="M825 238q-23 -45 -59.5 -91.5t-85.5 -84t-109.5 -62.5t-130.5 -25q-135 0 -203.5 89.5t-68.5 242.5q0 145 45 283.5t133 246t219 173t305 65.5q74 0 151 -11t134 -32l-91 -512l-91 -512q-25 -139 -82 -235.5t-141 -156.5t-190.5 -88t-229.5 -28q-70 0 -139.5 12.5 t-114.5 30.5q2 88 45 164q41 -10 96 -21.5t121 -11.5q92 0 163.5 18.5t127 61.5t93.5 113t60 174zM932 893q-49 12 -111 12q-102 0 -184 -47t-139.5 -126t-89 -178t-31.5 -204q0 -98 37 -152.5t104 -54.5q66 0 124 41t106.5 113t84 169t58.5 210z" />
<glyph unicode="h" horiz-adv-x="1161" d="M356 1079q20 115 32.5 198t12.5 148q0 25 -1 39.5t-3 36.5q23 4 55.5 6t55.5 2q20 0 46 -2t46 -6q6 -37 6 -76q0 -23 -3 -54.5t-7 -66t-10 -71.5t-13 -70q-14 -70 -26 -138l-25 -138q57 76 147.5 131t204.5 55q125 0 196 -65.5t71 -202.5q0 -31 -4 -68t-11 -73l-116 -664 q-23 -4 -52.5 -5t-52.5 -1t-50.5 1t-47.5 5l55 315l56 316l8 61q4 31 4 53q0 78 -42 115t-108 37q-47 0 -96 -20.5t-93 -70.5t-81 -135t-59 -214q-23 -117 -42 -230l-40 -227q-29 -4 -59.5 -5t-59.5 -1q-10 0 -37 1t-47 5z" />
<glyph unicode="i" horiz-adv-x="583" d="M369 889h-127q0 41 5 80t21 82h328l-184 -1051q-23 -4 -52.5 -5t-52.5 -1t-47 1t-47 5zM367 1268q0 59 10 112.5t26 108.5q29 4 62 6t57 2q25 0 56.5 -2t58.5 -6q-2 -59 -12.5 -113.5t-26.5 -107.5q-29 -4 -61.5 -5t-57.5 -1q-23 0 -55 1t-57 5z" />
<glyph unicode="j" horiz-adv-x="581" d="M369 889h-127q0 41 5 79t21 83h328l-209 -1192q-63 -358 -391 -359q-49 0 -93 7.5t-79 19.5q0 33 11 78t28 78q23 -8 56.5 -13.5t62.5 -5.5q76 0 132 45t76 162zM367 1268q0 59 10 112.5t26 108.5q29 4 62 6t57 2q25 0 56.5 -2t58.5 -6q-2 -59 -12.5 -113.5t-26.5 -107.5 q-29 -4 -61.5 -5t-57.5 -1q-23 0 -55 1t-57 5z" />
<glyph unicode="k" horiz-adv-x="1032" d="M535 545l215 268q57 72 94 131.5t47 106.5q29 4 53.5 6t52.5 2q29 0 57.5 -2t55.5 -6q-8 -47 -34.5 -91.5t-74.5 -107.5l-125 -152l-128 -151l249 -549q-59 -6 -106 -6q-53 0 -111 6zM358 1079q20 115 31.5 198t11.5 148v39q0 14 -2 37q23 4 54.5 6t54.5 2t47.5 -2 t46.5 -6q2 -18 3 -36.5t1 -39.5q0 -37 -6 -91t-16 -113l-215 -1221q-23 -4 -52.5 -5t-52.5 -1t-49.5 1t-46.5 5z" />
<glyph unicode="l" horiz-adv-x="608" d="M354 1079q20 115 31.5 198t13.5 148v39q0 14 -2 37q23 4 54.5 6t54.5 2q20 0 46 -2t48 -6q4 -18 4 -37v-39q0 -23 -3 -54.5t-7 -66t-10 -71.5t-13 -70l-159 -864q-6 -35 -6 -55q0 -33 9 -52.5t23.5 -28.5t31.5 -11t34 -2q18 0 41.5 4t40.5 8q18 -53 18 -127 q0 -8 -1 -15.5t-1 -13.5q-31 -10 -75 -15t-87 -5q-53 0 -97 10t-75.5 36.5t-49 70.5t-17.5 110q0 39 8 82l16 84z" />
<glyph unicode="m" horiz-adv-x="1726" d="M274 608q23 123 36.5 211t13.5 154v42q0 15 -5 38q23 4 49.5 6t49.5 2q20 0 44.5 -2t47.5 -6q4 -16 6 -36t2 -54q0 -25 -2 -47.5t-6 -47.5q53 86 145.5 146.5t206.5 60.5q111 0 169.5 -54t68.5 -159q61 94 155.5 153.5t206.5 59.5q242 0 242 -266q0 -31 -4 -69t-10 -74 l-117 -666q-23 -4 -51.5 -6t-51.5 -2t-50 2t-48 6l111 631q6 33 9 64.5t3 54.5q0 78 -30.5 113.5t-98.5 35.5q-43 0 -89 -20.5t-88 -69.5t-77 -129t-55 -199l-84 -481q-25 -4 -53.5 -6t-51.5 -2t-50 2t-48 6l111 631q6 33 9 64.5t3 54.5q0 78 -31 113.5t-98 35.5 q-43 0 -89 -20.5t-88 -71.5t-78 -136t-58 -214l-82 -457q-25 -4 -53.5 -6t-51.5 -2t-49.5 2t-46.5 6z" />
<glyph unicode="n" horiz-adv-x="1177" d="M291 608q23 123 36 211t13 154q0 27 -1 42t-5 38q23 4 49.5 6t48.5 2q20 0 46 -2t46 -6q4 -16 6 -38t2 -57q0 -39 -5 -73.5t-11 -67.5q20 43 57 89t86.5 83t109.5 61.5t128 24.5q123 0 191.5 -65.5t68.5 -202.5q0 -31 -4 -69t-10 -72l-117 -666q-25 -4 -53.5 -6t-50.5 -2 q-23 0 -50.5 2t-48.5 6l111 631q6 33 9 63.5t3 53.5q0 82 -38 116.5t-101 34.5q-55 0 -108.5 -34t-100.5 -99.5t-85 -161.5t-60 -221l-68 -383q-25 -4 -53.5 -6t-50.5 -2q-23 0 -50.5 2t-48.5 6z" />
<glyph unicode="o" horiz-adv-x="1140" d="M565 -25q-190 0 -286.5 105.5t-96.5 298.5q0 113 35 236.5t107.5 225t182 168t259.5 66.5q193 0 289 -106.5t96 -298.5q0 -115 -35 -238t-106.5 -224.5t-182 -167t-262.5 -65.5zM586 137q96 0 164.5 52.5t111.5 132t63.5 173t20.5 175.5q0 117 -52 178t-149 61 q-96 0 -163.5 -53t-110.5 -133t-62.5 -173t-19.5 -173q0 -117 50.5 -178.5t146.5 -61.5z" />
<glyph unicode="p" horiz-adv-x="1169" d="M397 160q23 -8 55.5 -11.5t61.5 -3.5q94 0 175 39t139.5 107.5t92 163t33.5 204.5q0 111 -47 175.5t-135 64.5q-53 0 -102 -22.5t-91 -71.5t-75 -128t-51 -194zM274 608q23 123 36.5 211t13.5 154q0 27 -1 42t-4 38q23 4 48.5 6t48.5 2q20 0 45.5 -2t48.5 -6q4 -16 6 -36 t2 -54q0 -25 -2 -44.5t-6 -44.5q55 86 143 143.5t213 57.5q141 0 223 -99t82 -280q0 -145 -44 -275t-132 -229.5t-219 -158t-305 -58.5q-33 0 -58.5 2.5t-47.5 6.5l-80 -467q-25 -4 -53.5 -6.5t-49.5 -2.5q-23 0 -50.5 2.5t-51.5 6.5z" />
<glyph unicode="q" horiz-adv-x="1128" d="M813 215q-25 -41 -60.5 -83t-81.5 -77t-102.5 -57.5t-122.5 -22.5q-135 0 -203.5 90.5t-68.5 243.5q0 145 45 282.5t133 245t219 173t303 65.5q76 0 150 -12t133 -29l-266 -1517q-23 -4 -51.5 -6.5t-48.5 -2.5q-23 0 -50.5 2.5t-50.5 6.5zM936 895q-23 6 -50.5 8t-60.5 2 q-102 0 -183 -47t-139.5 -125t-89 -177t-30.5 -204q0 -98 36 -153.5t103 -55.5q63 0 123 41t109 114t84.5 170t56.5 208z" />
<glyph unicode="r" horiz-adv-x="747" d="M166 0l50.5 272.5l51 277.5t40 245.5t16.5 177.5q0 27 -1 42t-6 38q23 4 49.5 5t49.5 1q20 0 45.5 -1t46.5 -5q4 -16 6 -36t2 -54q0 -47 -6 -93q27 37 58.5 70t70.5 59.5t86 42t104 15.5q16 0 36 -2t32 -6q0 -41 -9 -93.5t-32 -89.5q-8 2 -25.5 4t-33.5 2 q-137 0 -222.5 -98t-121.5 -303l-84 -471q-43 -6 -84 -6h-52z" />
<glyph unicode="s" horiz-adv-x="888" d="M438 494q-31 12 -65.5 30.5t-63 47t-48 72.5t-19.5 106q0 76 30.5 136t86 102t132 64.5t171.5 22.5q84 0 159.5 -18.5t118.5 -40.5q-16 -80 -59 -154q-35 16 -96.5 33.5t-131.5 17.5q-88 0 -146 -30.5t-58 -106.5q0 -47 27.5 -78.5t98.5 -60.5l46 -21l80 -38 q42 -20 76 -50t55.5 -72t21.5 -104q0 -98 -37 -168.5t-101.5 -117t-149.5 -69t-183 -22.5q-82 0 -161 14.5t-130 37.5q4 45 15.5 86t33.5 77q53 -23 125 -36t133 -13q51 0 96.5 9.5t78 29t52 52t19.5 81.5q0 63 -37 95t-104 59z" />
<glyph unicode="t" horiz-adv-x="716" d="M350 889h-166q0 41 6.5 79t22.5 83h164q10 53 18 108t8 115v33q41 20 98.5 30.5t98.5 10.5q2 -18 3 -37t1 -39q0 -63 -16 -158l-13 -63h265q0 -45 -6.5 -83t-20.5 -79h-262l-80 -445q-10 -47 -18.5 -97t-8.5 -91q0 -61 32 -85t85 -24q35 0 63.5 5.5t57.5 13.5 q6 -20 10 -45t4 -53v-30q0 -15 -2 -32q-27 -8 -69.5 -15t-92.5 -7q-66 0 -120 9t-92.5 34.5t-60 69.5t-21.5 116q0 39 7 83l15 91z" />
<glyph unicode="u" horiz-adv-x="1163" d="M340 1051q23 4 52.5 6t51.5 2q23 0 49.5 -2t49.5 -6l-111 -631q-12 -66 -12 -117q0 -82 38 -116.5t101 -34.5q55 0 108.5 33.5t100.5 99t85 162t60 221.5l68 383q25 4 53.5 6t50.5 2q23 0 50.5 -2t48.5 -6l-109 -609q-23 -123 -36 -211t-13 -153q0 -27 1 -42.5t3 -37.5 q-23 -4 -48.5 -6t-47.5 -2q-20 0 -46 2t-46 6q-8 27 -8 94q0 39 5 74t11 67q-20 -43 -57 -89t-86.5 -82.5t-109.5 -61.5t-128 -25q-123 0 -191.5 65.5t-68.5 203.5q0 31 4 68.5t10 72.5z" />
<glyph unicode="v" horiz-adv-x="1024" d="M203 1051q25 4 52.5 6t53.5 2q31 0 58.5 -2t52.5 -6l119 -844l264 530q47 96 75.5 175t30.5 124v15q27 4 55.5 6t57.5 2q31 0 60.5 -2t54.5 -6v-11q0 -33 -10.5 -68.5t-39.5 -92.5l-238 -442l-243 -437q-55 -6 -106 -6q-23 0 -54.5 1t-54.5 5z" />
<glyph unicode="w" horiz-adv-x="1564" d="M221 1051q29 4 55.5 6t55.5 2q59 0 106 -8l80 -815l328 815q23 4 49.5 6t48.5 2q27 0 51.5 -2t48.5 -6l101 -818l256 621q25 59 34 105.5t9 72.5v19q25 4 50.5 6t53.5 2q66 0 113 -8v-9q0 -45 -17.5 -95t-54.5 -126l-381 -821q-27 -4 -56.5 -6t-57.5 -2q-25 0 -51.5 2 t-49.5 6l-102 756l-311 -756q-27 -4 -56.5 -6t-56.5 -2q-25 0 -52.5 2t-49.5 6z" />
<glyph unicode="x" horiz-adv-x="1003" d="M254 1051q23 4 49.5 6t54.5 2q29 0 49.5 -2t49.5 -6l141 -506l-262 -383q-33 -47 -49.5 -86t-16.5 -76q-35 -4 -62.5 -5t-47.5 -1q-25 0 -44.5 1t-54.5 5q2 6 2 13t5 16q4 43 39.5 106.5t86.5 133.5l106 144l101 134zM836 877q35 53 47 99t12 75q35 6 57.5 7t42.5 1 q49 0 97 -8q0 -47 -15.5 -99.5t-56.5 -111.5l-102 -143l-103 -142l166 -555q-31 -4 -57.5 -6t-55.5 -2q-25 0 -50 2t-48 6l-79 272l-77 273z" />
<glyph unicode="y" horiz-adv-x="1024" d="M532 102l117 258l93 215l76 181l63 155q12 33 18 64t6 47q0 10 -1 16t-1 13q39 6 86 6h129q2 -8 2 -17v-16q0 -49 -20.5 -106.5t-44.5 -114.5l-198 -425l-236 -501q-57 -121 -110.5 -194.5t-106 -114.5t-105.5 -55.5t-115 -14.5q-72 0 -139 21q2 45 12.5 86t32.5 71 q18 -6 45 -11t49 -5q31 0 64 9t68.5 44t76.5 102.5t90 184.5q-16 -2 -34 -2h-37h-31q-16 0 -29 2l-68 524l-69 527q29 4 52.5 6t51.5 2q29 0 55.5 -2t53.5 -6z" />
<glyph unicode="z" horiz-adv-x="919" d="M63 29l658 860h-455q0 41 5 80t24 82h743l6 -27l-659 -864h498q0 -41 -6.5 -83t-22.5 -77h-784z" />
<glyph unicode="{" horiz-adv-x="778" d="M328 274q6 51 6 95q0 78 -33 134t-108 103l4 23q53 27 92 53.5t67.5 59t48 74.5t33.5 99l65 282q28 122 73 205t122.5 125t219.5 42q14 0 27 -1t28 -3q0 -37 -9.5 -82t-21.5 -80h-22q-66 0 -108 -17.5t-67.5 -53.5t-42 -92t-30.5 -136q-4 -16 -4 -25l-17 -88 q-18 -92 -37.5 -154.5t-46 -104.5t-62.5 -69.5t-83 -52.5q57 -35 85 -83t28 -138q0 -37 -8.5 -97.5t-19.5 -125t-19.5 -121.5t-8.5 -88q0 -78 40 -106.5t143 -28.5q0 -37 -6.5 -78t-20.5 -82q-8 0 -15.5 -1t-13.5 -1q-174 0 -250.5 69.5t-76.5 213.5q0 31 4 65.5t10 71.5z " />
<glyph unicode="|" horiz-adv-x="681" d="M532 1589q25 4 51.5 6t51.5 2q27 0 51.5 -2t44.5 -6l-340 -1933q-23 -4 -47.5 -6t-50.5 -2q-29 0 -53.5 2t-46.5 6z" />
<glyph unicode="}" horiz-adv-x="770" d="M74 -172q66 0 107.5 17.5t67 53t42 92t31.5 136.5q4 16 4 25l16 88q18 92 37.5 154.5t46.5 104.5t62.5 69.5t82.5 52.5q-57 35 -84.5 83t-27.5 138q0 37 8 97t19.5 124.5t19.5 122t8 88.5q0 78 -40 106.5t-142 28.5q0 37 6 78t20 82q8 0 15.5 1t13.5 1q174 0 251 -69.5 t77 -213.5q0 -31 -4 -65.5t-11 -71.5l-34 -195q-6 -53 -7 -94q0 -78 33 -134t109 -103l-4 -23q-53 -27 -92 -53.5t-68 -59t-48.5 -74.5t-33.5 -100l-65 -281q-28 -122 -72.5 -205t-122.5 -125t-219 -42q-14 0 -27.5 1t-28.5 3q0 37 9.5 82t21.5 80h23z" />
<glyph unicode="~" horiz-adv-x="980" d="M193 836q23 23 57.5 44t73 38.5t80.5 27.5t81 10q49 0 90 -13t80 -28.5t80 -28t88 -12.5q37 0 78 16.5t94 61.5q29 -35 46.5 -66.5t31.5 -74.5q-55 -47 -128 -76.5t-152 -29.5q-47 0 -88 12t-82 27.5t-81 28.5t-83 13q-41 0 -88 -18t-99 -61q-29 29 -49 59.5t-30 69.5z " />
<glyph unicode="&#xa1;" horiz-adv-x="577" d="M297 618q51 6 98 7q49 0 97 -7l-173 -1032q-55 -6 -106 -6q-55 0 -113 6zM328 831q0 59 10 113.5t27 114.5q29 4 56.5 6t53.5 2q29 0 56.5 -2t52.5 -6q0 -117 -39 -228q-29 -4 -55.5 -6t-55.5 -2q-27 0 -54 2t-52 6z" />
<glyph unicode="&#xa2;" horiz-adv-x="1228" d="M645 -16q-168 27 -247 133t-79 276q0 113 34 225.5t99.5 206t161 158t220.5 82.5l43 238q18 4 35.5 7t35.5 3t35.5 -3t36.5 -7l-21 -115l-20 -117q53 -4 102 -14t84 -23q-2 -39 -15 -86t-36 -82q-41 16 -90 27.5t-104 11.5q-98 0 -172 -46t-122 -116.5t-73 -158.5 t-25 -170q0 -139 69 -205t191 -66q102 0 213 39q14 -29 24.5 -68.5t10.5 -88.5q-53 -23 -123.5 -34t-126.5 -14l-36 -219q-33 -8 -72 -8q-20 0 -37.5 2t-34.5 6z" />
<glyph unicode="&#xa3;" horiz-adv-x="1228" d="M211 23q10 10 21.5 18t23.5 18q111 92 172 224.5t61 291.5q0 12 -1 23.5t-1 24.5h-184q0 78 29 159h147q-4 39 -6 76t-2 72q0 113 29.5 211t93 171.5t161 117t230.5 43.5q121 0 203 -23t131 -45q-10 -41 -27.5 -80t-46.5 -86q-53 23 -119.5 41t-144.5 18 q-84 0 -140.5 -26.5t-92 -74.5t-51 -115.5t-15.5 -149.5q0 -33 3 -71t7 -79h383q0 -80 -28 -159h-347q0 -109 -26.5 -223.5t-114.5 -215.5h580q0 -53 -10.5 -100t-20.5 -84h-893z" />
<glyph unicode="&#xa4;" horiz-adv-x="1228" d="M360 471q-35 51 -53 112.5t-18 129.5q0 70 20.5 131t57.5 114l-162 164q23 45 53.5 74t71.5 47l162 -164q51 35 111.5 53.5t127.5 18.5q68 0 128.5 -18.5t113.5 -53.5l164 164q37 -23 68.5 -52.5t51.5 -66.5l-161 -161q39 -53 60.5 -117t21.5 -133q0 -70 -21.5 -131.5 t-56.5 -114.5l155 -156q-45 -78 -116 -121l-162 160q-109 -74 -246 -74q-139 0 -248 74l-157 -157q-45 20 -74 51.5t-47 70.5zM731 440q57 0 105.5 21.5t83 58.5t55 86t20.5 107q0 57 -20.5 106t-55 86t-83 58.5t-105.5 21.5q-55 0 -103 -21.5t-83 -58.5t-54.5 -86 t-19.5 -106t19.5 -106.5t54.5 -86.5t83 -58.5t103 -21.5z" />
<glyph unicode="&#xa5;" horiz-adv-x="1228" d="M561 338h-371q0 37 4.5 70.5t20.5 72.5h373l26 160h-372q0 43 7 77t19 66h295l-241 676q27 4 58.5 6t59.5 2q29 0 55.5 -2t49.5 -6l203 -622l397 622q31 4 65.5 5t67.5 1q20 0 46 -1t46 -5l-446 -676h317q0 -35 -4 -68.5t-20 -74.5h-394l-28 -160h393q0 -41 -7 -75.5 t-18 -67.5h-393l-59 -338q-53 -6 -107 -6q-57 0 -102 6z" />
<glyph unicode="&#xa6;" horiz-adv-x="481" d="M418 1589q25 4 50.5 6t49.5 2q27 0 51.5 -2t46.5 -6l-118 -682q-23 -4 -48.5 -6t-52.5 -2t-51 2t-47 6zM199 338q25 4 50 6t50 2q27 0 51.5 -2t46.5 -6l-118 -682q-25 -4 -49.5 -6t-51.5 -2t-51.5 2t-46.5 6z" />
<glyph unicode="&#xa7;" horiz-adv-x="1118" d="M432 496q-86 29 -128 77t-42 125q0 86 45 157t119 134q-18 27 -31.5 60.5t-13.5 76.5q0 88 37 154t99.5 109t145 63.5t175.5 20.5q98 0 186 -18.5t147 -45.5q-10 -43 -29.5 -81t-41.5 -73q-47 23 -118 39.5t-138 16.5q-41 0 -85 -6.5t-81 -21.5t-60.5 -43t-23.5 -71 q0 -59 42 -86.5t95 -46.5l213 -75q80 -29 130 -75t50 -126q0 -82 -44 -153.5t-111 -135.5q61 -66 61 -152q0 -88 -38 -153.5t-100.5 -108.5t-145 -63.5t-173.5 -20.5q-49 0 -100 5.5t-97 13.5t-85 19.5t-66 23.5q10 43 28.5 82t41.5 73q47 -23 123 -40t145 -17q37 0 81 5 t83 20.5t64.5 45t25.5 77.5q0 53 -40 81.5t-93 47.5zM850 553q29 29 53.5 64.5t24.5 76.5q0 33 -31 58.5t-77 45t-102 38l-106 36.5l-73 29q-31 -27 -56.5 -62.5t-25.5 -76.5t26.5 -63.5t85.5 -43.5l112 -40q56 -19 114 -42z" />
<glyph unicode="&#xa8;" horiz-adv-x="1024" d="M397 1237q2 53 10.5 103.5t26.5 101.5q27 4 54.5 6t50.5 2t51 -2t53 -6q-2 -53 -10 -103.5t-27 -101.5q-53 -6 -104 -6q-23 0 -51.5 1t-53.5 5zM815 1237q2 53 9 103.5t28 101.5q25 4 52.5 6t51.5 2q23 0 51.5 -2t53.5 -6q-4 -53 -12.5 -102.5t-24.5 -102.5 q-53 -6 -104 -6q-23 0 -51.5 1t-53.5 5z" />
<glyph unicode="&#xa9;" horiz-adv-x="1732" d="M1192 487q35 -59 43 -137q-47 -23 -103.5 -33t-115.5 -10q-94 0 -169 32t-126 89t-78 135t-27 170t28 172t78 138.5t123 92t165 33.5q74 0 117.5 -8t93.5 -24q-2 -37 -8.5 -73t-22.5 -69q-47 14 -83 19.5t-81 5.5q-117 0 -177.5 -77t-60.5 -210q0 -137 66 -207.5 t176 -70.5q45 0 83 7t79 25zM985 106q143 0 256 49.5t191.5 134.5t120.5 199.5t42 245.5t-42 246t-120.5 200t-191.5 134t-256 49q-141 0 -255 -49t-192.5 -134t-120.5 -200t-42 -246t42 -245.5t120.5 -199.5t192.5 -134.5t255 -49.5zM985 -27q-170 0 -310 58.5t-239.5 160 t-155 240.5t-55.5 303q0 162 55.5 302.5t155 241.5t239.5 159.5t310 58.5t310.5 -57.5t239.5 -159.5t154.5 -241.5t55.5 -303.5t-55.5 -303t-154.5 -240.5t-239.5 -160t-310.5 -58.5z" />
<glyph unicode="&#xaa;" horiz-adv-x="1024" d="M885 1321q-18 4 -38 5t-42 1q-78 0 -141.5 -37t-108.5 -97t-68.5 -137t-23.5 -159q0 -74 24.5 -117t77.5 -43q49 0 94.5 33t83 89t66.5 133t45 165zM985 915q-25 -147 -24 -229v-34q0 -15 2 -34q-20 -2 -47 -3t-44 -1q-16 0 -37.5 1t-39.5 3q-8 33 -9 87q0 14 2.5 35.5 t6.5 50.5q-45 -76 -117 -134.5t-172 -58.5q-115 0 -172.5 68.5t-57.5 191.5q0 115 36 224.5t108 195.5t177 138t245 52q59 0 123.5 -10t111.5 -26z" />
<glyph unicode="&#xab;" horiz-adv-x="1198" d="M661 555l428 444q25 4 55.5 6.5t57.5 2.5q29 0 61.5 -2t61.5 -7l-432 -456l264 -451q-29 -4 -57.5 -6t-57.5 -2q-27 0 -52.5 2t-49.5 6zM176 555l428 444q25 4 55.5 6.5t57.5 2.5q29 0 61.5 -2t61.5 -7l-432 -456l264 -451q-29 -4 -57.5 -6t-57.5 -2q-27 0 -52.5 2 t-49.5 6z" />
<glyph unicode="&#xac;" horiz-adv-x="1228" d="M1137 791v-572q-18 -4 -44 -6t-49 -2t-49 2t-47 6v383h-667q-4 18 -5.5 44t-1.5 48q0 23 1 49.5t6 47.5h856z" />
<glyph unicode="&#xad;" horiz-adv-x="735" d="M748 684q0 -43 -9.5 -94t-23.5 -94h-516q4 96 32 188h517z" />
<glyph unicode="&#xae;" horiz-adv-x="1732" d="M733 1143q51 6 101.5 10t111.5 4q74 0 135.5 -14.5t105.5 -43t69.5 -75.5t25.5 -111q0 -47 -13.5 -83.5t-34 -65.5t-46 -48.5t-49.5 -33.5l213 -326q-29 -4 -52.5 -5t-46.5 -1q-43 0 -79 6l-234 365l41 18q49 23 94 61t45 97t-43 92t-114 33q-16 0 -35 -1t-41 -5v-662 q-31 -6 -76 -6t-78 6v789zM985 106q141 0 255 49.5t192.5 133.5t120.5 198.5t42 247.5q0 131 -42 246t-120.5 199t-192.5 133t-255 49q-143 0 -256 -49t-191.5 -133t-120.5 -199t-42 -246q0 -133 42 -247.5t120.5 -198.5t191.5 -133.5t256 -49.5zM985 -27q-170 0 -310 58.5 t-239.5 160t-155 240.5t-55.5 303q0 162 55.5 302.5t155 241.5t239.5 159.5t310 58.5t310.5 -57.5t239.5 -159.5t154.5 -241.5t55.5 -303.5t-55.5 -303t-154.5 -240.5t-239.5 -160t-310.5 -58.5z" />
<glyph unicode="&#xaf;" horiz-adv-x="1024" d="M987 1421q0 -41 -5 -78.5t-19 -80.5h-553q0 41 4 79.5t20 79.5h553z" />
<glyph unicode="&#xb0;" horiz-adv-x="757" d="M236 1188q0 63 23.5 117.5t63 94.5t95 63.5t117.5 23.5q61 0 115.5 -23.5t95 -63.5t64.5 -94.5t24 -117.5q0 -61 -24 -115.5t-64.5 -94.5t-95 -63.5t-115.5 -23.5t-117 23.5t-95.5 63.5t-63 94.5t-23.5 115.5zM535 1028q66 0 109.5 45t43.5 115t-44 116t-109 46 q-66 0 -110 -46.5t-44 -115.5q0 -70 44 -115t110 -45z" />
<glyph unicode="&#xb1;" horiz-adv-x="1228" d="M1071 188v-14q0 -47 -8.5 -90t-22.5 -82h-868q0 49 8 94t24 92h867zM621 629h-336q0 41 6 87t22 93h340l66 373q23 4 46 6t48 2q23 0 47.5 -2t46.5 -6l-65 -373h336q0 -45 -6.5 -88t-22.5 -92h-340l-66 -373q-41 -8 -94 -8q-25 0 -48 2t-46 6z" />
<glyph unicode="&#xb2;" d="M213 651l326 305q63 59 112 115.5t49 128.5q0 111 -116 111q-47 0 -98.5 -14.5t-92.5 -32.5q-12 29 -23.5 62.5t-13.5 70.5q59 27 127 44t144 17q121 0 190.5 -61.5t69.5 -165.5q0 -55 -17.5 -102.5t-46 -88.5t-69.5 -79l-86 -82l-115 -105h303q0 -72 -27 -147h-612z" />
<glyph unicode="&#xb3;" d="M446 1034l236 273h-295q0 35 5 69.5t18 71.5h510l10 -31l-248 -295q96 -12 140 -71.5t44 -130.5q0 -76 -29.5 -135.5t-79.5 -99.5t-118 -61.5t-141 -21.5q-82 0 -146.5 13.5t-109.5 33.5q12 68 59 131q51 -16 97 -27.5t96 -11.5q37 0 71.5 8.5t62 27t44 49t16.5 73.5 q0 59 -38 89t-101 30q-16 0 -39 -2t-45 -6z" />
<glyph unicode="&#xb4;" horiz-adv-x="1024" d="M719 1477q33 4 65.5 6t67.5 2t65.5 -2t61.5 -6l-254 -260q-23 -4 -50.5 -6.5t-58.5 -2.5q-23 0 -47 2t-49 7z" />
<glyph unicode="&#xb5;" horiz-adv-x="1187" d="M324 1051q23 4 50 6t50 2t50.5 -2t49.5 -6l-96 -549q-6 -39 -10 -79t-4 -75q0 -102 44 -154.5t144 -52.5q45 0 92 18.5t88 55.5t73 93.5t44 131.5l105 611q23 4 50 6t50 2t50.5 -2t49.5 -6l-180 -1051q-16 -4 -36.5 -6t-43.5 -2t-46.5 2t-39.5 6v23q0 27 1 55t5 53 q-53 -72 -124.5 -114t-174.5 -42q-72 0 -129 29t-82 76l-94 -563q-23 -4 -51.5 -6.5t-50.5 -2.5q-23 0 -49.5 2.5t-47.5 6.5z" />
<glyph unicode="&#xb6;" horiz-adv-x="1177" d="M631 641q-78 6 -149.5 28.5t-125 65.5t-85 108.5t-31.5 157.5q0 137 50 230.5t142 150t220 80t286 23.5l-256 -1495h-35q-31 0 -63.5 2t-63.5 10zM1094 1485q53 0 95 -3t64 -12l-252 -1470q-55 -12 -163 -12z" />
<glyph unicode="&#xb7;" horiz-adv-x="493" d="M215 461q0 57 11 113.5t28 113.5q29 4 57.5 6.5t57.5 2.5t57.5 -2.5t54.5 -6.5q0 -59 -10 -113.5t-27 -113.5q-33 -4 -60.5 -6t-55.5 -2q-29 0 -56.5 2t-56.5 6z" />
<glyph unicode="&#xb8;" horiz-adv-x="1024" d="M334 -223l141 270h121l-88 -166q6 2 15 3t26 1q82 0 128 -45t46 -114q0 -63 -24.5 -105.5t-64.5 -68t-91 -36t-105 -10.5q-61 0 -108 12.5t-70 26.5q6 27 17.5 58.5t29.5 54.5q29 -10 64 -19.5t65 -9.5q20 0 43 2t43.5 10.5t33.5 25t13 44.5q0 39 -31.5 54.5t-84.5 15.5 q-27 0 -54.5 -4t-56.5 -10z" />
<glyph unicode="&#xb9;" d="M498 772l82 467l-193 -78q-41 55 -47 133l397 162h54l-119 -684h188q0 -37 -5 -72.5t-21 -72.5h-547q0 37 5 72.5t23 72.5h183z" />
<glyph unicode="&#xba;" horiz-adv-x="1024" d="M598 598q-156 0 -236.5 84t-80.5 238q0 88 26.5 185t84 179t147.5 134t215 52q158 0 236.5 -85t78.5 -240q0 -90 -26.5 -186.5t-84 -176.5t-146.5 -132t-214 -52zM610 737q74 0 126 40t85 101.5t48.5 133t15.5 133.5q0 90 -39 136t-109 46q-74 0 -125 -41t-82.5 -102.5 t-47 -133t-15.5 -132.5q0 -181 143 -181z" />
<glyph unicode="&#xbb;" horiz-adv-x="1241" d="M1013 559l-268 440q29 4 57.5 6.5t57.5 2.5q27 0 52.5 -2t49.5 -7l279 -467l-430 -440q-25 -4 -54.5 -6t-58.5 -2t-60.5 2t-60.5 6zM530 559l-268 440q29 4 57.5 6.5t57.5 2.5q27 0 52.5 -2t49.5 -7l279 -467l-430 -440q-25 -4 -54.5 -6t-58.5 -2t-60.5 2t-60.5 6z" />
<glyph unicode="&#xbc;" horiz-adv-x="2150" d="M1675 1450q25 4 55.5 6t57.5 2t55.5 -2t50.5 -6l-1134 -1448q-29 -4 -53.5 -6t-49.5 -2q-27 0 -58.5 2t-56.5 6zM498 772l82 467l-193 -78q-41 55 -47 133l397 162h54l-119 -684h188q0 -37 -5 -72.5t-21 -72.5h-547q0 37 5 72.5t23 72.5h183zM1288 188l436 664 q41 -6 79 -20.5t65 -33.5l-332 -499h201l30 168q18 4 36 5t40 1q41 0 76 -6l-29 -168h94q0 -31 -5 -69t-17 -69h-94l-29 -161q-16 -2 -32.5 -3t-37.5 -1q-23 0 -41 1t-41 5l27 159h-416z" />
<glyph unicode="&#xbd;" horiz-adv-x="2150" d="M1651 1450q25 4 55.5 6t57.5 2t55.5 -2t50.5 -6l-1134 -1448q-29 -4 -53.5 -6t-49.5 -2q-27 0 -58.5 2t-56.5 6zM498 772l82 467l-193 -78q-41 55 -47 133l397 162h54l-119 -684h188q0 -37 -5 -72.5t-21 -72.5h-547q0 37 5 72.5t23 72.5h183zM1343 26l326 305 q63 59 112 115.5t49 128.5q0 111 -116 111q-47 0 -98.5 -14.5t-92.5 -32.5q-12 29 -23.5 62.5t-13.5 70.5q59 27 127 44t144 17q121 0 190.5 -61.5t69.5 -165.5q0 -55 -17.5 -102.5t-46 -88.5t-69.5 -79l-86 -82l-115 -105h303q0 -72 -27 -147h-612z" />
<glyph unicode="&#xbe;" horiz-adv-x="2150" d="M1638 1450q25 4 55.5 6t57.5 2t55.5 -2t50.5 -6l-1134 -1448q-29 -4 -53.5 -6t-49.5 -2q-27 0 -58.5 2t-56.5 6zM1262 188l436 664q41 -6 79 -20.5t65 -33.5l-332 -499h201l30 168q18 4 36 5t40 1q41 0 76 -6l-29 -168h94q0 -31 -5 -69t-17 -69h-94l-29 -161 q-16 -2 -32.5 -3t-37.5 -1q-23 0 -41 1t-41 5l27 159h-416zM460 1034l236 273h-295q0 35 5 69.5t18 71.5h510l10 -31l-248 -295q96 -12 140 -71.5t44 -130.5q0 -76 -29.5 -135.5t-79.5 -99.5t-118 -61.5t-141 -21.5q-82 0 -146.5 13.5t-109.5 33.5q12 68 59 131 q51 -16 97 -27.5t96 -11.5q37 0 71.5 8.5t62 27t44 49t16.5 73.5q0 59 -38 89t-101 30q-16 0 -39 -2t-45 -6z" />
<glyph unicode="&#xbf;" horiz-adv-x="927" d="M598 623q51 6 98 6q25 0 49.5 -1t47.5 -5l-58 -332l-76 -21q-59 -16 -111 -44.5t-93 -69.5t-64.5 -93.5t-23.5 -115.5q0 -94 65.5 -143.5t175.5 -49.5q78 0 134.5 13.5t121.5 35.5q14 -35 24.5 -83t10.5 -89q-94 -35 -175 -45t-161 -10q-102 0 -181 25.5t-131 71.5 t-79 108.5t-27 136.5q0 90 34 169t92.5 142.5t133 110.5t158.5 72zM618 831q2 61 11.5 117t29.5 111q29 4 57.5 6t57.5 2t56.5 -2t56.5 -6q-2 -59 -11.5 -116.5t-29.5 -111.5q-29 -4 -57.5 -7t-57.5 -3q-27 0 -55.5 3t-57.5 7z" />
<glyph unicode="&#xc0;" horiz-adv-x="1226" d="M741 1473q27 4 65 5t66 1q31 0 63 -1t56 -5l201 -1473q-59 -6 -119 -6q-49 0 -100 6l-39 346h-496l-149 -346q-49 -6 -111 -6q-29 0 -56.5 1t-49.5 5zM913 526l-84 711l-311 -711h395zM557 1825q25 4 64.5 6t78.5 2q35 0 67.5 -2t55.5 -6l186 -232q-16 -4 -44.5 -7 t-57.5 -3q-33 0 -59.5 2t-45.5 6z" />
<glyph unicode="&#xc1;" horiz-adv-x="1226" d="M741 1473q27 4 65 5t66 1q31 0 63 -1t56 -5l201 -1473q-59 -6 -119 -6q-49 0 -100 6l-39 346h-496l-149 -346q-49 -6 -111 -6q-29 0 -56.5 1t-49.5 5zM913 526l-84 711l-311 -711h395zM961 1817q25 4 58.5 6t68.5 2q37 0 75.5 -2t61.5 -6l-297 -226q-20 -4 -52 -5t-65 -1 q-29 0 -56.5 2t-43.5 6z" />
<glyph unicode="&#xc2;" horiz-adv-x="1226" d="M741 1473q27 4 65 5t66 1q31 0 63 -1t56 -5l201 -1473q-59 -6 -119 -6q-49 0 -100 6l-39 346h-496l-149 -346q-49 -6 -111 -6q-29 0 -56.5 1t-49.5 5zM913 526l-84 711l-311 -711h395zM807 1821q27 4 60.5 6t62.5 2q20 0 50 -2t56 -6l168 -226q-23 -4 -47 -6t-51 -2 q-23 0 -50.5 2t-54.5 8l-92 123l-141 -125q-27 -4 -58.5 -6t-56.5 -2q-29 0 -56.5 2t-49.5 6z" />
<glyph unicode="&#xc3;" horiz-adv-x="1226" d="M741 1473q27 4 65 5t66 1q31 0 63 -1t56 -5l201 -1473q-59 -6 -119 -6q-49 0 -100 6l-39 346h-496l-149 -346q-49 -6 -111 -6q-29 0 -56.5 1t-49.5 5zM913 526l-84 711l-311 -711h395zM543 1737q39 41 93 71.5t120 30.5q43 0 78 -11t67.5 -25.5t66.5 -26t75 -11.5 q35 0 62.5 11.5t68.5 46.5q16 -20 35.5 -53t23.5 -62q-41 -37 -95 -67.5t-120 -30.5q-43 0 -78 11t-67.5 24.5t-66.5 24.5t-70 11q-39 0 -67 -12t-67 -43q-18 20 -36.5 51t-22.5 60z" />
<glyph unicode="&#xc4;" horiz-adv-x="1226" d="M741 1473q27 4 65 5t66 1q31 0 63 -1t56 -5l201 -1473q-59 -6 -119 -6q-49 0 -100 6l-39 346h-496l-149 -346q-49 -6 -111 -6q-29 0 -56.5 1t-49.5 5zM913 526l-84 711l-311 -711h395zM547 1593q0 106 35 207q29 4 56.5 6t51.5 2q27 0 55.5 -2t51.5 -6q0 -106 -35 -207 q-29 -4 -56.5 -6t-54.5 -2q-25 0 -52 2t-52 6zM985 1593q0 102 35 207q27 4 55.5 6t53.5 2q27 0 54 -2t52 -6q-4 -104 -35 -207q-29 -4 -56.5 -6t-53.5 -2q-25 0 -53.5 2t-51.5 6z" />
<glyph unicode="&#xc5;" horiz-adv-x="1239" d="M743 1468q-45 27 -68.5 73t-23.5 104q0 57 20.5 107t56.5 87t85 57.5t109 20.5q104 0 159.5 -62.5t55.5 -154.5q0 -78 -39 -139.5t-105 -92.5l201 -1468q-47 -6 -109 -6q-57 0 -108 6l-21 172l-20 174h-494l-151 -346q-41 -6 -86 -6h-55l-76 6zM915 526l-84 711 l-311 -711h395zM881 1542q59 0 92 44t33 104q0 49 -21.5 82.5t-75.5 33.5q-61 0 -95 -42t-34 -103q0 -53 24 -86t77 -33z" />
<glyph unicode="&#xc6;" horiz-adv-x="1796" d="M1018 1473h930q0 -86 -31 -185h-569l-74 -420h455q0 -43 -8.5 -90t-24.5 -94h-455l-88 -502h584q0 -45 -8.5 -91t-22.5 -91h-795l60 344h-496l-244 -344q-29 -4 -60.5 -6t-61.5 -2q-29 0 -56.5 2t-52.5 6zM1004 524l137 781h-13l-528 -781h404z" />
<glyph unicode="&#xc7;" horiz-adv-x="1181" d="M694 -18q-223 27 -342 174t-119 389q0 184 51.5 356t153 304t251 212t343.5 80q109 0 186.5 -15.5t131.5 -37.5q-10 -47 -23.5 -86t-40.5 -86q-59 23 -116.5 33t-131.5 10q-152 0 -262 -63.5t-181 -169t-104.5 -240.5t-33.5 -279q0 -199 98 -301t281 -102q78 0 144.5 14 t133.5 43q18 -35 28.5 -80t14.5 -94q-72 -33 -166 -48t-174 -20l-53 -94q20 4 43 4q86 0 132 -45t46 -114q0 -63 -24.5 -105.5t-65.5 -68t-93 -36t-108 -10.5q-63 0 -111 12.5t-71 26.5q4 27 16.5 58.5t28.5 54.5q31 -10 68 -19.5t67 -9.5q20 0 44 2t44.5 10.5t33.5 25 t13 44.5q0 39 -31.5 54.5t-86.5 15.5q-29 0 -56.5 -4t-56.5 -10l-10 10z" />
<glyph unicode="&#xc8;" horiz-adv-x="1073" d="M446 1473h781q0 -92 -33 -185h-569l-74 -420h455q0 -94 -33 -184h-455l-44 -251l-44 -251h586l-10.5 -92t-22.5 -90h-795zM559 1825q25 4 64.5 6t78.5 2q35 0 67.5 -2t55.5 -6l186 -232q-16 -4 -44.5 -7t-57.5 -3q-33 0 -59.5 2t-45.5 6z" />
<glyph unicode="&#xc9;" horiz-adv-x="1073" d="M446 1473h781q0 -92 -33 -185h-569l-74 -420h455q0 -94 -33 -184h-455l-44 -251l-44 -251h586l-10.5 -92t-22.5 -90h-795zM957 1817q25 4 58.5 6t68.5 2q37 0 75.5 -2t61.5 -6l-297 -226q-20 -4 -52 -5t-65 -1q-29 0 -56.5 2t-43.5 6z" />
<glyph unicode="&#xca;" horiz-adv-x="1073" d="M446 1473h781q0 -92 -33 -185h-569l-74 -420h455q0 -94 -33 -184h-455l-44 -251l-44 -251h586l-10.5 -92t-22.5 -90h-795zM782 1821q27 4 60.5 6t62.5 2q20 0 50 -2t56 -6l168 -226q-23 -4 -47 -6t-51 -2q-23 0 -50.5 2t-54.5 8l-92 123l-141 -125q-27 -4 -58.5 -6 t-56.5 -2q-29 0 -56.5 2t-49.5 6z" />
<glyph unicode="&#xcb;" horiz-adv-x="1073" d="M446 1473h781q0 -92 -33 -185h-569l-74 -420h455q0 -94 -33 -184h-455l-44 -251l-44 -251h586l-10.5 -92t-22.5 -90h-795zM535 1593q0 106 35 207q29 4 56.5 6t51.5 2q27 0 55.5 -2t51.5 -6q0 -106 -35 -207q-29 -4 -56.5 -6t-54.5 -2q-25 0 -52 2t-52 6zM973 1593 q0 102 35 207q27 4 55.5 6t53.5 2q27 0 54 -2t52 -6q-4 -104 -35 -207q-29 -4 -56.5 -6t-53.5 -2q-25 0 -53.5 2t-51.5 6z" />
<glyph unicode="&#xcc;" horiz-adv-x="589" d="M449 1473q27 4 53 6t53 2q29 0 54.5 -2t49.5 -6l-258 -1473q-29 -4 -54 -6t-54 -2t-54.5 2t-48.5 6zM279 1825q25 4 64.5 6t78.5 2q35 0 67.5 -2t55.5 -6l186 -232q-16 -4 -44.5 -7t-57.5 -3q-33 0 -59.5 2t-45.5 6z" />
<glyph unicode="&#xcd;" horiz-adv-x="589" d="M449 1473q27 4 53 6t53 2q29 0 54.5 -2t49.5 -6l-258 -1473q-29 -4 -54 -6t-54 -2t-54.5 2t-48.5 6zM643 1817q25 4 58.5 6t68.5 2q37 0 75.5 -2t61.5 -6l-297 -226q-20 -4 -52 -5t-65 -1q-29 0 -56.5 2t-43.5 6z" />
<glyph unicode="&#xce;" horiz-adv-x="589" d="M449 1473q27 4 53 6t53 2q29 0 54.5 -2t49.5 -6l-258 -1473q-29 -4 -54 -6t-54 -2t-54.5 2t-48.5 6zM506 1821q27 4 60.5 6t62.5 2q20 0 50 -2t56 -6l168 -226q-23 -4 -47 -6t-51 -2q-23 0 -50.5 2t-54.5 8l-92 123l-141 -125q-27 -4 -58.5 -6t-56.5 -2q-29 0 -56.5 2 t-49.5 6z" />
<glyph unicode="&#xcf;" horiz-adv-x="589" d="M449 1473q27 4 53 6t53 2q29 0 54.5 -2t49.5 -6l-258 -1473q-29 -4 -54 -6t-54 -2t-54.5 2t-48.5 6zM248 1593q0 106 35 207q29 4 56.5 6t51.5 2q27 0 55.5 -2t51.5 -6q0 -106 -35 -207q-29 -4 -56.5 -6t-54.5 -2q-25 0 -52 2t-52 6zM686 1593q0 102 35 207q27 4 55.5 6 t53.5 2q27 0 54 -2t52 -6q-4 -104 -35 -207q-29 -4 -56.5 -6t-53.5 -2q-25 0 -53.5 2t-51.5 6z" />
<glyph unicode="&#xd0;" horiz-adv-x="1425" d="M338 692h-154q0 41 5.5 79t19.5 75h156l110 627q33 4 74 8t84 7t84 5t78 2q172 0 297 -43t204.5 -122t117.5 -189.5t38 -245.5q0 -195 -57.5 -361.5t-169 -291.5t-275.5 -196t-379 -71q-111 0 -201.5 7.5t-152.5 17.5zM457 172q27 -4 75 -7t93 -3q141 0 253.5 53 t191.5 147.5t120 223.5t41 280q0 217 -98.5 332t-323.5 115q-41 0 -80 -3t-72 -7l-82 -457h353q0 -39 -5 -78t-20 -76h-354z" />
<glyph unicode="&#xd1;" horiz-adv-x="1370" d="M446 1473q23 4 50.5 5t50.5 1q51 0 92 -6l414 -1111l192 1111l40 4q19 2 40 2h49l66 -6l-258 -1473q-23 -4 -48.5 -5t-50.5 -1q-23 0 -46 1t-46 5l-416 1104l-190 -1104q-41 -6 -80 -6h-51l-66 6zM635 1737q39 41 93 71.5t120 30.5q43 0 78 -11t67.5 -25.5t66.5 -26 t75 -11.5q35 0 62.5 11.5t68.5 46.5q16 -20 35.5 -53t23.5 -62q-41 -37 -95 -67.5t-120 -30.5q-43 0 -78 11t-67.5 24.5t-66.5 24.5t-70 11q-39 0 -67 -12t-67 -43q-18 20 -36.5 51t-22.5 60z" />
<glyph unicode="&#xd2;" horiz-adv-x="1435" d="M715 -25q-123 0 -214 39t-151.5 110t-90.5 171t-30 221q0 188 49.5 365.5t144.5 313.5t234.5 219t317.5 83q123 0 215 -41t151.5 -112.5t89 -172t29.5 -219.5q0 -193 -50 -368.5t-145.5 -311t-233.5 -216.5t-316 -81zM737 156q121 0 214 70.5t158 184t98.5 256 t33.5 283.5q0 166 -68.5 264.5t-222.5 98.5q-123 0 -217 -69.5t-157.5 -182.5t-96.5 -255t-33 -288q0 -172 70.5 -267t220.5 -95zM748 1825q25 4 64.5 6t78.5 2q35 0 67.5 -2t55.5 -6l186 -232q-16 -4 -44.5 -7t-57.5 -3q-33 0 -59.5 2t-45.5 6z" />
<glyph unicode="&#xd3;" horiz-adv-x="1435" d="M715 -25q-123 0 -214 39t-151.5 110t-90.5 171t-30 221q0 188 49.5 365.5t144.5 313.5t234.5 219t317.5 83q123 0 215 -41t151.5 -112.5t89 -172t29.5 -219.5q0 -193 -50 -368.5t-145.5 -311t-233.5 -216.5t-316 -81zM737 156q121 0 214 70.5t158 184t98.5 256 t33.5 283.5q0 166 -68.5 264.5t-222.5 98.5q-123 0 -217 -69.5t-157.5 -182.5t-96.5 -255t-33 -288q0 -172 70.5 -267t220.5 -95zM1059 1817q25 4 58.5 6t68.5 2q37 0 75.5 -2t61.5 -6l-297 -226q-20 -4 -52 -5t-65 -1q-29 0 -56.5 2t-43.5 6z" />
<glyph unicode="&#xd4;" horiz-adv-x="1435" d="M715 -25q-123 0 -214 39t-151.5 110t-90.5 171t-30 221q0 188 49.5 365.5t144.5 313.5t234.5 219t317.5 83q123 0 215 -41t151.5 -112.5t89 -172t29.5 -219.5q0 -193 -50 -368.5t-145.5 -311t-233.5 -216.5t-316 -81zM737 156q121 0 214 70.5t158 184t98.5 256 t33.5 283.5q0 166 -68.5 264.5t-222.5 98.5q-123 0 -217 -69.5t-157.5 -182.5t-96.5 -255t-33 -288q0 -172 70.5 -267t220.5 -95zM916 1821q27 4 60.5 6t62.5 2q20 0 50 -2t56 -6l168 -226q-23 -4 -47 -6t-51 -2q-23 0 -50.5 2t-54.5 8l-92 123l-141 -125q-27 -4 -58.5 -6 t-56.5 -2q-29 0 -56.5 2t-49.5 6z" />
<glyph unicode="&#xd5;" horiz-adv-x="1435" d="M715 -25q-123 0 -214 39t-151.5 110t-90.5 171t-30 221q0 188 49.5 365.5t144.5 313.5t234.5 219t317.5 83q123 0 215 -41t151.5 -112.5t89 -172t29.5 -219.5q0 -193 -50 -368.5t-145.5 -311t-233.5 -216.5t-316 -81zM737 156q121 0 214 70.5t158 184t98.5 256 t33.5 283.5q0 166 -68.5 264.5t-222.5 98.5q-123 0 -217 -69.5t-157.5 -182.5t-96.5 -255t-33 -288q0 -172 70.5 -267t220.5 -95zM680 1737q39 41 93 71.5t120 30.5q43 0 78 -11t67.5 -25.5t66.5 -26t75 -11.5q35 0 62.5 11.5t68.5 46.5q16 -20 35.5 -53t23.5 -62 q-41 -37 -95 -67.5t-120 -30.5q-43 0 -78 11t-67.5 24.5t-66.5 24.5t-70 11q-39 0 -67 -12t-67 -43q-18 20 -36.5 51t-22.5 60z" />
<glyph unicode="&#xd6;" horiz-adv-x="1435" d="M715 -25q-123 0 -214 39t-151.5 110t-90.5 171t-30 221q0 188 49.5 365.5t144.5 313.5t234.5 219t317.5 83q123 0 215 -41t151.5 -112.5t89 -172t29.5 -219.5q0 -193 -50 -368.5t-145.5 -311t-233.5 -216.5t-316 -81zM737 156q121 0 214 70.5t158 184t98.5 256 t33.5 283.5q0 166 -68.5 264.5t-222.5 98.5q-123 0 -217 -69.5t-157.5 -182.5t-96.5 -255t-33 -288q0 -172 70.5 -267t220.5 -95zM674 1593q0 106 35 207q29 4 56.5 6t51.5 2q27 0 55.5 -2t51.5 -6q0 -106 -35 -207q-29 -4 -56.5 -6t-54.5 -2q-25 0 -52 2t-52 6zM1112 1593 q0 102 35 207q27 4 55.5 6t53.5 2q27 0 54 -2t52 -6q-4 -104 -35 -207q-29 -4 -56.5 -6t-53.5 -2q-25 0 -53.5 2t-51.5 6z" />
<glyph unicode="&#xd7;" horiz-adv-x="1228" d="M610 731l-198 242q33 35 70.5 68.5t82.5 62.5l199 -244l289 248q35 -29 66.5 -68t51.5 -77l-288 -248l196 -238q-31 -37 -70.5 -69.5t-80.5 -57.5l-197 238l-295 -250q-37 27 -66.5 65.5t-52.5 79.5z" />
<glyph unicode="&#xd8;" horiz-adv-x="1435" d="M319 164q-90 135 -90 352q0 188 49.5 365.5t144.5 313.5t234.5 219t317.5 83q190 0 307 -98l72 92q16 4 39.5 6t44.5 2q47 0 80 -8l-148 -188q90 -139 90 -351q0 -193 -50 -368.5t-145.5 -311t-233.5 -216.5t-316 -81q-188 0 -305 93l-78 -99q-33 -8 -78 -8q-20 0 -45 2 t-41 6zM535 231q72 -76 202 -75q121 0 214 70.5t158 184t98.5 256t33.5 283.5q0 92 -22 158zM1155 1235q-74 78 -205 78q-123 0 -217 -69.5t-157.5 -182.5t-96.5 -255t-33 -288q0 -92 25 -160z" />
<glyph unicode="&#xd9;" horiz-adv-x="1357" d="M434 1473q27 4 54.5 6t54.5 2t52.5 -2t49.5 -6l-147 -836q-25 -141 -25 -240q0 -125 52.5 -179t181.5 -54q88 0 150.5 29.5t105.5 89t71.5 148.5t48.5 206l146 836q29 4 54.5 6t53.5 2q25 0 52.5 -2t50.5 -6l-156 -887q-27 -147 -71 -262t-114.5 -192t-174 -117 t-248.5 -40q-211 0 -314.5 100.5t-103.5 311.5q0 47 6 100.5t17 112.5zM668 1825q25 4 64.5 6t78.5 2q35 0 67.5 -2t55.5 -6l186 -232q-16 -4 -44.5 -7t-57.5 -3q-33 0 -59.5 2t-45.5 6z" />
<glyph unicode="&#xda;" horiz-adv-x="1357" d="M434 1473q27 4 54.5 6t54.5 2t52.5 -2t49.5 -6l-147 -836q-25 -141 -25 -240q0 -125 52.5 -179t181.5 -54q88 0 150.5 29.5t105.5 89t71.5 148.5t48.5 206l146 836q29 4 54.5 6t53.5 2q25 0 52.5 -2t50.5 -6l-156 -887q-27 -147 -71 -262t-114.5 -192t-174 -117 t-248.5 -40q-211 0 -314.5 100.5t-103.5 311.5q0 47 6 100.5t17 112.5zM1041 1817q25 4 58.5 6t68.5 2q37 0 75.5 -2t61.5 -6l-297 -226q-20 -4 -52 -5t-65 -1q-29 0 -56.5 2t-43.5 6z" />
<glyph unicode="&#xdb;" horiz-adv-x="1357" d="M434 1473q27 4 54.5 6t54.5 2t52.5 -2t49.5 -6l-147 -836q-25 -141 -25 -240q0 -125 52.5 -179t181.5 -54q88 0 150.5 29.5t105.5 89t71.5 148.5t48.5 206l146 836q29 4 54.5 6t53.5 2q25 0 52.5 -2t50.5 -6l-156 -887q-27 -147 -71 -262t-114.5 -192t-174 -117 t-248.5 -40q-211 0 -314.5 100.5t-103.5 311.5q0 47 6 100.5t17 112.5zM889 1821q27 4 60.5 6t62.5 2q20 0 50 -2t56 -6l168 -226q-23 -4 -47 -6t-51 -2q-23 0 -50.5 2t-54.5 8l-92 123l-141 -125q-27 -4 -58.5 -6t-56.5 -2q-29 0 -56.5 2t-49.5 6z" />
<glyph unicode="&#xdc;" horiz-adv-x="1357" d="M434 1473q27 4 54.5 6t54.5 2t52.5 -2t49.5 -6l-147 -836q-25 -141 -25 -240q0 -125 52.5 -179t181.5 -54q88 0 150.5 29.5t105.5 89t71.5 148.5t48.5 206l146 836q29 4 54.5 6t53.5 2q25 0 52.5 -2t50.5 -6l-156 -887q-27 -147 -71 -262t-114.5 -192t-174 -117 t-248.5 -40q-211 0 -314.5 100.5t-103.5 311.5q0 47 6 100.5t17 112.5zM643 1593q0 106 35 207q29 4 56.5 6t51.5 2q27 0 55.5 -2t51.5 -6q0 -106 -35 -207q-29 -4 -56.5 -6t-54.5 -2q-25 0 -52 2t-52 6zM1081 1593q0 102 35 207q27 4 55.5 6t53.5 2q27 0 54 -2t52 -6 q-4 -104 -35 -207q-29 -4 -56.5 -6t-53.5 -2q-25 0 -53.5 2t-51.5 6z" />
<glyph unicode="&#xdd;" horiz-adv-x="1124" d="M553 537l-281 936q29 4 67 5t73 1q43 0 84 -6l196 -723l422 723q55 6 117 6q27 0 56.5 -1t51.5 -5l-579 -943l-92 -530q-55 -6 -109 -6q-57 0 -102 6zM930 1817q25 4 58.5 6t68.5 2q37 0 75.5 -2t61.5 -6l-297 -226q-20 -4 -52 -5t-65 -1q-29 0 -56.5 2t-43.5 6z" />
<glyph unicode="&#xde;" horiz-adv-x="1181" d="M455 1473q49 6 100 6q29 0 57.5 -1t51.5 -5l-41 -230q27 2 49 2h45q98 0 187 -20.5t156.5 -68.5t107.5 -125t40 -189q0 -133 -45 -237.5t-127 -176.5t-196.5 -109.5t-253.5 -37.5q-41 0 -69 2t-60 4l-51 -287q-33 -4 -61 -5t-58 -1q-23 0 -47.5 2t-42.5 4zM487 467 q29 -4 53.5 -5t71.5 -1q82 0 152 21.5t119 66.5t76.5 114.5t27.5 165.5q0 74 -23.5 120t-61.5 72t-88 36t-103 10h-34q-13 0 -27 -1l-26 -2q-13 -1 -34 -3z" />
<glyph unicode="&#xdf;" horiz-adv-x="1183" d="M350 1071q20 123 57 208t94.5 138t137.5 78t184 25q90 0 157 -22.5t110 -62.5t64.5 -92.5t21.5 -113.5q0 -98 -42 -167t-93 -123l-92 -103q-42 -49 -42 -109q0 -51 38 -89l84 -81q46 -43 85 -100.5t39 -145.5q0 -76 -28.5 -138t-80 -106t-123 -68t-157.5 -24 q-78 0 -142.5 12.5t-113.5 35.5q10 37 27.5 77.5t39.5 81.5q41 -18 91.5 -29.5t99.5 -11.5q74 0 131 38t57 116q0 66 -38.5 105.5t-85 77.5t-85 86t-38.5 130q0 80 43 140.5t94 117t94 116.5t43 138q0 72 -52 110t-132 38q-55 0 -96.5 -14.5t-70 -49.5t-48 -92t-33.5 -141 l-195 -1118q-23 -123 -59.5 -206t-90.5 -135.5t-124 -75t-158 -22.5q-45 0 -85 7.5t-73 17.5q8 49 20.5 87t33.5 75q20 -8 45.5 -13.5t52.5 -5.5q45 0 83 10.5t67.5 41t51 87t38.5 148.5z" />
<glyph unicode="&#xe0;" horiz-adv-x="1134" d="M932 895q-25 6 -51.5 8t-59.5 2q-102 0 -183 -47t-139.5 -126t-89 -178t-30.5 -204q0 -98 35 -152.5t104 -54.5q63 0 122.5 41t109 114t85 170t56.5 208zM1049 446q-23 -123 -36.5 -211t-13.5 -153q0 -27 1 -42t6 -38q-23 -4 -49.5 -6t-49.5 -2q-20 0 -44.5 2t-47.5 6 q-4 23 -6 46.5t-2 57.5q0 23 5 62t11 70q-23 -45 -59.5 -91.5t-84.5 -84t-108.5 -62.5t-130.5 -25q-135 0 -203.5 89.5t-68.5 242.5q0 145 45 283.5t133 246t219 173t305 65.5q74 0 149 -11t132 -32zM565 1477q31 4 61.5 6t65.5 2t68.5 -2t64.5 -6l189 -260q-47 -8 -99 -9 q-31 0 -57.5 2t-48.5 7z" />
<glyph unicode="&#xe1;" horiz-adv-x="1134" d="M932 895q-25 6 -51.5 8t-59.5 2q-102 0 -183 -47t-139.5 -126t-89 -178t-30.5 -204q0 -98 35 -152.5t104 -54.5q63 0 122.5 41t109 114t85 170t56.5 208zM1049 446q-23 -123 -36.5 -211t-13.5 -153q0 -27 1 -42t6 -38q-23 -4 -49.5 -6t-49.5 -2q-20 0 -44.5 2t-47.5 6 q-4 23 -6 46.5t-2 57.5q0 23 5 62t11 70q-23 -45 -59.5 -91.5t-84.5 -84t-108.5 -62.5t-130.5 -25q-135 0 -203.5 89.5t-68.5 242.5q0 145 45 283.5t133 246t219 173t305 65.5q74 0 149 -11t132 -32zM912 1477q33 4 65.5 6t67.5 2t65.5 -2t61.5 -6l-254 -260 q-23 -4 -50.5 -6.5t-58.5 -2.5q-23 0 -47 2t-49 7z" />
<glyph unicode="&#xe2;" horiz-adv-x="1134" d="M932 895q-25 6 -51.5 8t-59.5 2q-102 0 -183 -47t-139.5 -126t-89 -178t-30.5 -204q0 -98 35 -152.5t104 -54.5q63 0 122.5 41t109 114t85 170t56.5 208zM1049 446q-23 -123 -36.5 -211t-13.5 -153q0 -27 1 -42t6 -38q-23 -4 -49.5 -6t-49.5 -2q-20 0 -44.5 2t-47.5 6 q-4 23 -6 46.5t-2 57.5q0 23 5 62t11 70q-23 -45 -59.5 -91.5t-84.5 -84t-108.5 -62.5t-130.5 -25q-135 0 -203.5 89.5t-68.5 242.5q0 145 45 283.5t133 246t219 173t305 65.5q74 0 149 -11t132 -32zM757 1477q25 4 59 6t62 2q23 0 57.5 -2t61.5 -8l152 -258 q-18 -4 -42 -6.5t-51 -2.5q-25 0 -53.5 2t-52.5 7l-84 161l-143 -161q-25 -4 -56.5 -6.5t-56.5 -2.5q-29 0 -57.5 2t-49.5 7z" />
<glyph unicode="&#xe3;" horiz-adv-x="1134" d="M932 895q-25 6 -51.5 8t-59.5 2q-102 0 -183 -47t-139.5 -126t-89 -178t-30.5 -204q0 -98 35 -152.5t104 -54.5q63 0 122.5 41t109 114t85 170t56.5 208zM1049 446q-23 -123 -36.5 -211t-13.5 -153q0 -27 1 -42t6 -38q-23 -4 -49.5 -6t-49.5 -2q-20 0 -44.5 2t-47.5 6 q-4 23 -6 46.5t-2 57.5q0 23 5 62t11 70q-23 -45 -59.5 -91.5t-84.5 -84t-108.5 -62.5t-130.5 -25q-135 0 -203.5 89.5t-68.5 242.5q0 145 45 283.5t133 246t219 173t305 65.5q74 0 149 -11t132 -32zM498 1352q39 41 93 71.5t120 30.5q43 0 77.5 -11t67.5 -24.5t67 -25 t74 -11.5q35 0 64 10.5t70 45.5q16 -20 34.5 -52t22.5 -63q-39 -37 -94.5 -67.5t-120.5 -30.5q-43 0 -78 11t-67.5 25.5t-66.5 25.5t-71 11q-39 0 -66.5 -13t-66.5 -44q-18 20 -36.5 51t-22.5 60z" />
<glyph unicode="&#xe4;" horiz-adv-x="1134" d="M932 895q-25 6 -51.5 8t-59.5 2q-102 0 -183 -47t-139.5 -126t-89 -178t-30.5 -204q0 -98 35 -152.5t104 -54.5q63 0 122.5 41t109 114t85 170t56.5 208zM1049 446q-23 -123 -36.5 -211t-13.5 -153q0 -27 1 -42t6 -38q-23 -4 -49.5 -6t-49.5 -2q-20 0 -44.5 2t-47.5 6 q-4 23 -6 46.5t-2 57.5q0 23 5 62t11 70q-23 -45 -59.5 -91.5t-84.5 -84t-108.5 -62.5t-130.5 -25q-135 0 -203.5 89.5t-68.5 242.5q0 145 45 283.5t133 246t219 173t305 65.5q74 0 149 -11t132 -32zM514 1237q2 53 10.5 103.5t26.5 101.5q27 4 54.5 6t50.5 2t51 -2t53 -6 q-2 -53 -10 -103.5t-27 -101.5q-53 -6 -104 -6q-23 0 -51.5 1t-53.5 5zM932 1237q2 53 9 103.5t28 101.5q25 4 52.5 6t51.5 2q23 0 51.5 -2t53.5 -6q-4 -53 -12.5 -102.5t-24.5 -102.5q-53 -6 -104 -6q-23 0 -51.5 1t-53.5 5z" />
<glyph unicode="&#xe5;" horiz-adv-x="1134" d="M932 895q-25 6 -51.5 8t-59.5 2q-102 0 -183 -47t-139.5 -126t-89 -178t-30.5 -204q0 -98 35 -152.5t104 -54.5q63 0 122.5 41t109 114t85 170t56.5 208zM1049 446q-23 -123 -36.5 -211t-13.5 -153q0 -27 1 -42t6 -38q-23 -4 -49.5 -6t-49.5 -2q-20 0 -44.5 2t-47.5 6 q-4 23 -6 46.5t-2 57.5q0 23 5 62t11 70q-23 -45 -59.5 -91.5t-84.5 -84t-108.5 -62.5t-130.5 -25q-135 0 -203.5 89.5t-68.5 242.5q0 145 45 283.5t133 246t219 173t305 65.5q74 0 149 -11t132 -32zM682 1395q0 49 16.5 93t47 77.5t73.5 54t96 20.5q92 0 145.5 -54 t53.5 -148q0 -49 -17.5 -93.5t-49 -76t-74.5 -50t-94 -18.5q-92 0 -144.5 53.5t-52.5 141.5zM889 1305q47 0 74.5 34.5t27.5 94.5q0 47 -19.5 74.5t-64.5 27.5q-51 0 -77.5 -39t-26.5 -90q0 -47 20.5 -74.5t65.5 -27.5z" />
<glyph unicode="&#xe6;" horiz-adv-x="1689" d="M930 893q-49 12 -111 12q-102 0 -183 -48t-139.5 -126t-89 -177t-30.5 -204q0 -98 36 -152.5t103 -54.5q66 0 125 41t108.5 113t85 169t56.5 210zM1180 588q104 16 172.5 39.5t108.5 51.5t56.5 58.5t16.5 65.5q0 49 -34 80.5t-95 31.5q-66 0 -121 -28.5t-98 -76.5 t-73 -110.5t-46 -130.5zM1051 418q0 -125 63.5 -201t198.5 -76q82 0 155.5 19.5t133.5 42.5q20 -31 27 -74t7 -86q-31 -14 -74.5 -26.5t-92 -21.5t-97.5 -14.5t-90 -5.5q-96 0 -167 20.5t-120 57.5t-77.5 87t-43.5 110q-80 -131 -184 -203t-233 -72q-147 0 -218 89.5 t-71 242.5q0 143 45 281.5t132 247t217 174t300 65.5q66 0 133.5 -11t124.5 -30q-6 -29 -11 -58.5t-9 -57.5q63 68 151 112.5t203 44.5q129 0 206 -66.5t77 -177.5q0 -90 -44 -156.5t-122 -113.5t-183.5 -77.5t-230.5 -49.5z" />
<glyph unicode="&#xe7;" horiz-adv-x="940" d="M512 -16q-172 25 -252 131t-80 280q0 123 40 245t119 219t192.5 156.5t261.5 59.5q68 0 129 -12t106 -29q-2 -39 -16.5 -85t-36.5 -81q-41 16 -89 27.5t-102 11.5q-100 0 -173.5 -44t-123 -114.5t-73 -158.5t-23.5 -174q0 -139 68.5 -206t189.5 -67q53 0 105.5 9.5 t107.5 31.5q16 -29 25.5 -68.5t9.5 -90.5q-57 -23 -130 -35.5t-136 -14.5l-51 -94q8 2 17 3t24 1q86 0 132 -45t46 -114q0 -63 -24.5 -105.5t-65.5 -68t-93.5 -36t-107.5 -10.5q-63 0 -111.5 12.5t-70.5 26.5q6 27 17 58.5t30 54.5q29 -10 65.5 -19.5t69.5 -9.5q20 0 43.5 2 t44 10.5t34 25t13.5 44.5q0 39 -32.5 54.5t-86.5 15.5q-29 0 -57.5 -4t-54.5 -10l-11 10z" />
<glyph unicode="&#xe8;" horiz-adv-x="1019" d="M381 418q6 -137 69.5 -207t196.5 -70q82 0 156 19.5t133 42.5q18 -31 26.5 -74t8.5 -86q-31 -14 -75 -26.5t-92 -21.5t-97.5 -14.5t-90.5 -5.5q-121 0 -203.5 32t-135 88.5t-76 133t-23.5 166.5q0 125 42 247t121 218t188.5 155.5t244.5 59.5t214 -66.5t79 -177.5 q0 -90 -44 -156.5t-122 -113.5t-183.5 -77.5t-230.5 -49.5zM510 590q104 18 173 41.5t110 51.5t57 58.5t16 67.5q0 47 -32.5 76.5t-94.5 29.5q-66 0 -121 -29.5t-99 -77.5t-74.5 -110.5t-47.5 -128.5zM489 1477q31 4 61.5 6t65.5 2t68.5 -2t64.5 -6l189 -260q-47 -8 -99 -9 q-31 0 -57.5 2t-48.5 7z" />
<glyph unicode="&#xe9;" horiz-adv-x="1019" d="M381 418q6 -137 69.5 -207t196.5 -70q82 0 156 19.5t133 42.5q18 -31 26.5 -74t8.5 -86q-31 -14 -75 -26.5t-92 -21.5t-97.5 -14.5t-90.5 -5.5q-121 0 -203.5 32t-135 88.5t-76 133t-23.5 166.5q0 125 42 247t121 218t188.5 155.5t244.5 59.5t214 -66.5t79 -177.5 q0 -90 -44 -156.5t-122 -113.5t-183.5 -77.5t-230.5 -49.5zM510 590q104 18 173 41.5t110 51.5t57 58.5t16 67.5q0 47 -32.5 76.5t-94.5 29.5q-66 0 -121 -29.5t-99 -77.5t-74.5 -110.5t-47.5 -128.5zM813 1477q33 4 65.5 6t67.5 2t65.5 -2t61.5 -6l-254 -260 q-23 -4 -50.5 -6.5t-58.5 -2.5q-23 0 -47 2t-49 7z" />
<glyph unicode="&#xea;" horiz-adv-x="1019" d="M381 418q6 -137 69.5 -207t196.5 -70q82 0 156 19.5t133 42.5q18 -31 26.5 -74t8.5 -86q-31 -14 -75 -26.5t-92 -21.5t-97.5 -14.5t-90.5 -5.5q-121 0 -203.5 32t-135 88.5t-76 133t-23.5 166.5q0 125 42 247t121 218t188.5 155.5t244.5 59.5t214 -66.5t79 -177.5 q0 -90 -44 -156.5t-122 -113.5t-183.5 -77.5t-230.5 -49.5zM510 590q104 18 173 41.5t110 51.5t57 58.5t16 67.5q0 47 -32.5 76.5t-94.5 29.5q-66 0 -121 -29.5t-99 -77.5t-74.5 -110.5t-47.5 -128.5zM677 1477q25 4 59 6t62 2q23 0 57.5 -2t61.5 -8l152 -258 q-18 -4 -42 -6.5t-51 -2.5q-25 0 -53.5 2t-52.5 7l-84 161l-143 -161q-25 -4 -56.5 -6.5t-56.5 -2.5q-29 0 -57.5 2t-49.5 7z" />
<glyph unicode="&#xeb;" horiz-adv-x="1019" d="M381 418q6 -137 69.5 -207t196.5 -70q82 0 156 19.5t133 42.5q18 -31 26.5 -74t8.5 -86q-31 -14 -75 -26.5t-92 -21.5t-97.5 -14.5t-90.5 -5.5q-121 0 -203.5 32t-135 88.5t-76 133t-23.5 166.5q0 125 42 247t121 218t188.5 155.5t244.5 59.5t214 -66.5t79 -177.5 q0 -90 -44 -156.5t-122 -113.5t-183.5 -77.5t-230.5 -49.5zM510 590q104 18 173 41.5t110 51.5t57 58.5t16 67.5q0 47 -32.5 76.5t-94.5 29.5q-66 0 -121 -29.5t-99 -77.5t-74.5 -110.5t-47.5 -128.5zM428 1237q2 53 10.5 103.5t26.5 101.5q27 4 54.5 6t50.5 2t51 -2t53 -6 q-2 -53 -10 -103.5t-27 -101.5q-53 -6 -104 -6q-23 0 -51.5 1t-53.5 5zM846 1237q2 53 9 103.5t28 101.5q25 4 52.5 6t51.5 2q23 0 51.5 -2t53.5 -6q-4 -53 -12.5 -102.5t-24.5 -102.5q-53 -6 -104 -6q-23 0 -51.5 1t-53.5 5z" />
<glyph unicode="&#xec;" horiz-adv-x="583" d="M215 1477q31 4 61.5 6t65.5 2t68.5 -2t64.5 -6l189 -260q-47 -8 -99 -9q-31 0 -57.5 2t-48.5 7zM369 889h-127q0 41 5 80t21 82h328l-184 -1051q-23 -4 -52.5 -5t-52.5 -1t-47 1t-47 5z" />
<glyph unicode="&#xed;" horiz-adv-x="583" d="M512 1477q33 4 65.5 6t67.5 2t65.5 -2t61.5 -6l-254 -260q-23 -4 -50.5 -6.5t-58.5 -2.5q-23 0 -47 2t-49 7zM369 889h-127q0 41 5 80t21 82h328l-184 -1051q-23 -4 -52.5 -5t-52.5 -1t-47 1t-47 5z" />
<glyph unicode="&#xee;" horiz-adv-x="583" d="M369 889h-127q0 41 5 80t21 82h328l-184 -1051q-23 -4 -52.5 -5t-52.5 -1t-47 1t-47 5zM399 1477q25 4 59 6t62 2q23 0 57.5 -2t61.5 -8l152 -258q-18 -4 -42 -6.5t-51 -2.5q-25 0 -53.5 2t-52.5 7l-84 161l-143 -161q-25 -4 -56.5 -6.5t-56.5 -2.5q-29 0 -57.5 2 t-49.5 7z" />
<glyph unicode="&#xef;" horiz-adv-x="583" d="M157 1237q2 53 10.5 103.5t26.5 101.5q27 4 54.5 6t50.5 2t51 -2t53 -6q-2 -53 -10 -103.5t-27 -101.5q-53 -6 -104 -6q-23 0 -51.5 1t-53.5 5zM575 1237q2 53 9 103.5t28 101.5q25 4 52.5 6t51.5 2q23 0 51.5 -2t53.5 -6q-4 -53 -12.5 -102.5t-24.5 -102.5 q-53 -6 -104 -6q-23 0 -51.5 1t-53.5 5zM369 889h-127q0 41 5 80t21 82h328l-184 -1051q-23 -4 -52.5 -5t-52.5 -1t-47 1t-47 5z" />
<glyph unicode="&#xf0;" horiz-adv-x="1157" d="M752 1288q-90 51 -203 58q0 35 9 75.5t36 87.5q104 -6 191 -35.5t147 -76.5l205 112q23 -20 39 -49.5t22 -60.5l-170 -94q74 -92 108.5 -225.5t34.5 -284.5q0 -141 -30.5 -287t-101 -263.5t-186.5 -193.5t-284 -76q-102 0 -177 31t-122 85t-69.5 129t-22.5 161 q0 111 33 221.5t97.5 197.5t161.5 142t226 55q92 0 165 -37.5t114 -97.5q-4 109 -35 195t-84 145l-211 -119q-23 20 -39 51t-20 60zM594 135q82 0 144.5 40t105.5 101.5t65.5 137t22.5 149.5q0 131 -55.5 204t-171.5 73q-86 0 -146.5 -44t-99.5 -112t-56.5 -147.5 t-17.5 -149.5q0 -115 47 -183.5t162 -68.5z" />
<glyph unicode="&#xf1;" horiz-adv-x="1177" d="M291 608q23 123 36 211t13 154q0 27 -1 42t-5 38q23 4 49.5 6t48.5 2q20 0 46 -2t46 -6q4 -16 6 -38t2 -57q0 -39 -5 -73.5t-11 -67.5q20 43 57 89t86.5 83t109.5 61.5t128 24.5q123 0 191.5 -65.5t68.5 -202.5q0 -31 -4 -69t-10 -72l-117 -666q-25 -4 -53.5 -6t-50.5 -2 q-23 0 -50.5 2t-48.5 6l111 631q6 33 9 63.5t3 53.5q0 82 -38 116.5t-101 34.5q-55 0 -108.5 -34t-100.5 -99.5t-85 -161.5t-60 -221l-68 -383q-25 -4 -53.5 -6t-50.5 -2q-23 0 -50.5 2t-48.5 6zM455 1352q39 41 93 71.5t120 30.5q43 0 77.5 -11t67.5 -24.5t67 -25t74 -11.5 q35 0 64 10.5t70 45.5q16 -20 34.5 -52t22.5 -63q-39 -37 -94.5 -67.5t-120.5 -30.5q-43 0 -78 11t-67.5 25.5t-66.5 25.5t-71 11q-39 0 -66.5 -13t-66.5 -44q-18 20 -36.5 51t-22.5 60z" />
<glyph unicode="&#xf2;" horiz-adv-x="1140" d="M565 -25q-190 0 -286.5 105.5t-96.5 298.5q0 113 35 236.5t107.5 225t182 168t259.5 66.5q193 0 289 -106.5t96 -298.5q0 -115 -35 -238t-106.5 -224.5t-182 -167t-262.5 -65.5zM586 137q96 0 164.5 52.5t111.5 132t63.5 173t20.5 175.5q0 117 -52 178t-149 61 q-96 0 -163.5 -53t-110.5 -133t-62.5 -173t-19.5 -173q0 -117 50.5 -178.5t146.5 -61.5zM563 1477q31 4 61.5 6t65.5 2t68.5 -2t64.5 -6l189 -260q-47 -8 -99 -9q-31 0 -57.5 2t-48.5 7z" />
<glyph unicode="&#xf3;" horiz-adv-x="1140" d="M565 -25q-190 0 -286.5 105.5t-96.5 298.5q0 113 35 236.5t107.5 225t182 168t259.5 66.5q193 0 289 -106.5t96 -298.5q0 -115 -35 -238t-106.5 -224.5t-182 -167t-262.5 -65.5zM586 137q96 0 164.5 52.5t111.5 132t63.5 173t20.5 175.5q0 117 -52 178t-149 61 q-96 0 -163.5 -53t-110.5 -133t-62.5 -173t-19.5 -173q0 -117 50.5 -178.5t146.5 -61.5zM823 1477q33 4 65.5 6t67.5 2t65.5 -2t61.5 -6l-254 -260q-23 -4 -50.5 -6.5t-58.5 -2.5q-23 0 -47 2t-49 7z" />
<glyph unicode="&#xf4;" horiz-adv-x="1140" d="M565 -25q-190 0 -286.5 105.5t-96.5 298.5q0 113 35 236.5t107.5 225t182 168t259.5 66.5q193 0 289 -106.5t96 -298.5q0 -115 -35 -238t-106.5 -224.5t-182 -167t-262.5 -65.5zM586 137q96 0 164.5 52.5t111.5 132t63.5 173t20.5 175.5q0 117 -52 178t-149 61 q-96 0 -163.5 -53t-110.5 -133t-62.5 -173t-19.5 -173q0 -117 50.5 -178.5t146.5 -61.5zM712 1477q25 4 59 6t62 2q23 0 57.5 -2t61.5 -8l152 -258q-18 -4 -42 -6.5t-51 -2.5q-25 0 -53.5 2t-52.5 7l-84 161l-143 -161q-25 -4 -56.5 -6.5t-56.5 -2.5q-29 0 -57.5 2t-49.5 7z " />
<glyph unicode="&#xf5;" horiz-adv-x="1140" d="M565 -25q-190 0 -286.5 105.5t-96.5 298.5q0 113 35 236.5t107.5 225t182 168t259.5 66.5q193 0 289 -106.5t96 -298.5q0 -115 -35 -238t-106.5 -224.5t-182 -167t-262.5 -65.5zM586 137q96 0 164.5 52.5t111.5 132t63.5 173t20.5 175.5q0 117 -52 178t-149 61 q-96 0 -163.5 -53t-110.5 -133t-62.5 -173t-19.5 -173q0 -117 50.5 -178.5t146.5 -61.5zM441 1352q39 41 93 71.5t120 30.5q43 0 77.5 -11t67.5 -24.5t67 -25t74 -11.5q35 0 64 10.5t70 45.5q16 -20 34.5 -52t22.5 -63q-39 -37 -94.5 -67.5t-120.5 -30.5q-43 0 -78 11 t-67.5 25.5t-66.5 25.5t-71 11q-39 0 -66.5 -13t-66.5 -44q-18 20 -36.5 51t-22.5 60z" />
<glyph unicode="&#xf6;" horiz-adv-x="1140" d="M565 -25q-190 0 -286.5 105.5t-96.5 298.5q0 113 35 236.5t107.5 225t182 168t259.5 66.5q193 0 289 -106.5t96 -298.5q0 -115 -35 -238t-106.5 -224.5t-182 -167t-262.5 -65.5zM586 137q96 0 164.5 52.5t111.5 132t63.5 173t20.5 175.5q0 117 -52 178t-149 61 q-96 0 -163.5 -53t-110.5 -133t-62.5 -173t-19.5 -173q0 -117 50.5 -178.5t146.5 -61.5zM475 1237q2 53 10.5 103.5t26.5 101.5q27 4 54.5 6t50.5 2t51 -2t53 -6q-2 -53 -10 -103.5t-27 -101.5q-53 -6 -104 -6q-23 0 -51.5 1t-53.5 5zM893 1237q2 53 9 103.5t28 101.5 q25 4 52.5 6t51.5 2q23 0 51.5 -2t53.5 -6q-4 -53 -12.5 -102.5t-24.5 -102.5q-53 -6 -104 -6q-23 0 -51.5 1t-53.5 5z" />
<glyph unicode="&#xf7;" horiz-adv-x="1228" d="M547 340q0 66 46 111t112 45q59 0 92.5 -34t33.5 -95q0 -59 -44 -105.5t-113 -46.5q-61 0 -94 38t-33 87zM670 1081q0 66 46 111t111 45q59 0 93 -34t34 -95q0 -59 -44 -106.5t-113 -47.5q-61 0 -94 39t-33 88zM1210 815q0 -45 -8 -95t-24 -91h-867q0 45 9.5 94t23.5 92 h866z" />
<glyph unicode="&#xf8;" horiz-adv-x="1140" d="M254 109q-74 100 -74 270q0 113 36 235.5t107.5 225t182 169t260.5 66.5q133 0 227 -59l56 69q25 6 69 7q45 0 76 -7l-119 -145q76 -104 76 -272q0 -115 -35 -237t-107.5 -223.5t-183 -167t-260.5 -65.5q-70 0 -127 15.5t-102 42.5l-23 -33q-10 -14 -23.5 -24.5 t-33.5 -16.5t-53 -6q-45 0 -72 6zM457 180q49 -43 127 -43q96 0 164.5 52.5t111.5 132t63.5 173t20.5 173.5q0 27 -4 49t-10 41zM870 866q-49 43 -127 43q-96 0 -163.5 -53t-110.5 -133t-62.5 -174t-19.5 -174q0 -43 10 -88z" />
<glyph unicode="&#xf9;" horiz-adv-x="1163" d="M340 1051q23 4 52.5 6t51.5 2q23 0 49.5 -2t49.5 -6l-111 -631q-12 -66 -12 -117q0 -82 38 -116.5t101 -34.5q55 0 108.5 33.5t100.5 99t85 162t60 221.5l68 383q25 4 53.5 6t50.5 2q23 0 50.5 -2t48.5 -6l-109 -609q-23 -123 -36 -211t-13 -153q0 -27 1 -42.5t3 -37.5 q-23 -4 -48.5 -6t-47.5 -2q-20 0 -46 2t-46 6q-8 27 -8 94q0 39 5 74t11 67q-20 -43 -57 -89t-86.5 -82.5t-109.5 -61.5t-128 -25q-123 0 -191.5 65.5t-68.5 203.5q0 31 4 68.5t10 72.5zM489 1477q31 4 61.5 6t65.5 2t68.5 -2t64.5 -6l189 -260q-47 -8 -99 -9q-31 0 -57.5 2 t-48.5 7z" />
<glyph unicode="&#xfa;" horiz-adv-x="1163" d="M340 1051q23 4 52.5 6t51.5 2q23 0 49.5 -2t49.5 -6l-111 -631q-12 -66 -12 -117q0 -82 38 -116.5t101 -34.5q55 0 108.5 33.5t100.5 99t85 162t60 221.5l68 383q25 4 53.5 6t50.5 2q23 0 50.5 -2t48.5 -6l-109 -609q-23 -123 -36 -211t-13 -153q0 -27 1 -42.5t3 -37.5 q-23 -4 -48.5 -6t-47.5 -2q-20 0 -46 2t-46 6q-8 27 -8 94q0 39 5 74t11 67q-20 -43 -57 -89t-86.5 -82.5t-109.5 -61.5t-128 -25q-123 0 -191.5 65.5t-68.5 203.5q0 31 4 68.5t10 72.5zM864 1477q33 4 65.5 6t67.5 2t65.5 -2t61.5 -6l-254 -260q-23 -4 -50.5 -6.5 t-58.5 -2.5q-23 0 -47 2t-49 7z" />
<glyph unicode="&#xfb;" horiz-adv-x="1163" d="M340 1051q23 4 52.5 6t51.5 2q23 0 49.5 -2t49.5 -6l-111 -631q-12 -66 -12 -117q0 -82 38 -116.5t101 -34.5q55 0 108.5 33.5t100.5 99t85 162t60 221.5l68 383q25 4 53.5 6t50.5 2q23 0 50.5 -2t48.5 -6l-109 -609q-23 -123 -36 -211t-13 -153q0 -27 1 -42.5t3 -37.5 q-23 -4 -48.5 -6t-47.5 -2q-20 0 -46 2t-46 6q-8 27 -8 94q0 39 5 74t11 67q-20 -43 -57 -89t-86.5 -82.5t-109.5 -61.5t-128 -25q-123 0 -191.5 65.5t-68.5 203.5q0 31 4 68.5t10 72.5zM708 1477q25 4 59 6t62 2q23 0 57.5 -2t61.5 -8l152 -258q-18 -4 -42 -6.5t-51 -2.5 q-25 0 -53.5 2t-52.5 7l-84 161l-143 -161q-25 -4 -56.5 -6.5t-56.5 -2.5q-29 0 -57.5 2t-49.5 7z" />
<glyph unicode="&#xfc;" horiz-adv-x="1163" d="M340 1051q23 4 52.5 6t51.5 2q23 0 49.5 -2t49.5 -6l-111 -631q-12 -66 -12 -117q0 -82 38 -116.5t101 -34.5q55 0 108.5 33.5t100.5 99t85 162t60 221.5l68 383q25 4 53.5 6t50.5 2q23 0 50.5 -2t48.5 -6l-109 -609q-23 -123 -36 -211t-13 -153q0 -27 1 -42.5t3 -37.5 q-23 -4 -48.5 -6t-47.5 -2q-20 0 -46 2t-46 6q-8 27 -8 94q0 39 5 74t11 67q-20 -43 -57 -89t-86.5 -82.5t-109.5 -61.5t-128 -25q-123 0 -191.5 65.5t-68.5 203.5q0 31 4 68.5t10 72.5zM475 1237q2 53 10.5 103.5t26.5 101.5q27 4 54.5 6t50.5 2t51 -2t53 -6 q-2 -53 -10 -103.5t-27 -101.5q-53 -6 -104 -6q-23 0 -51.5 1t-53.5 5zM893 1237q2 53 9 103.5t28 101.5q25 4 52.5 6t51.5 2q23 0 51.5 -2t53.5 -6q-4 -53 -12.5 -102.5t-24.5 -102.5q-53 -6 -104 -6q-23 0 -51.5 1t-53.5 5z" />
<glyph unicode="&#xfd;" horiz-adv-x="1024" d="M532 102l117 258l93 215l76 181l63 155q12 33 18 64t6 47q0 10 -1 16t-1 13q39 6 86 6h129q2 -8 2 -17v-16q0 -49 -20.5 -106.5t-44.5 -114.5l-198 -425l-236 -501q-57 -121 -110.5 -194.5t-106 -114.5t-105.5 -55.5t-115 -14.5q-72 0 -139 21q2 45 12.5 86t32.5 71 q18 -6 45 -11t49 -5q31 0 64 9t68.5 44t76.5 102.5t90 184.5q-16 -2 -34 -2h-37h-31q-16 0 -29 2l-68 524l-69 527q29 4 52.5 6t51.5 2q29 0 55.5 -2t53.5 -6zM750 1477q33 4 65.5 6t67.5 2t65.5 -2t61.5 -6l-254 -260q-23 -4 -50.5 -6.5t-58.5 -2.5q-23 0 -47 2t-49 7z" />
<glyph unicode="&#xfe;" horiz-adv-x="1159" d="M391 158q23 -6 55.5 -9.5t63.5 -3.5q92 0 171 36t138.5 102.5t93 159t33.5 206.5q0 109 -44 178.5t-136 69.5q-51 0 -100.5 -21.5t-91.5 -70.5t-75.5 -128t-52.5 -194zM279 -483q-25 -4 -53.5 -5t-49.5 -1q-23 0 -50.5 1t-49.5 5l135 769l137 769q23 123 36 211t13 153 q0 27 -1 43.5t-3 36.5q23 4 48.5 6t47.5 2q20 0 51 -1t54 -5q4 -16 6 -36.5t2 -55.5q0 -18 -6 -76.5t-18 -130.5l-60 -325q55 84 136 141t206 57q141 0 223 -99t82 -280q0 -145 -44 -275t-132 -229.5t-219 -158t-305 -58.5q-31 0 -57.5 3.5t-49.5 7.5z" />
<glyph unicode="&#xff;" horiz-adv-x="1024" d="M532 102l117 258l93 215l76 181l63 155q12 33 18 64t6 47q0 10 -1 16t-1 13q39 6 86 6h129q2 -8 2 -17v-16q0 -49 -20.5 -106.5t-44.5 -114.5l-198 -425l-236 -501q-57 -121 -110.5 -194.5t-106 -114.5t-105.5 -55.5t-115 -14.5q-72 0 -139 21q2 45 12.5 86t32.5 71 q18 -6 45 -11t49 -5q31 0 64 9t68.5 44t76.5 102.5t90 184.5q-16 -2 -34 -2h-37h-31q-16 0 -29 2l-68 524l-69 527q29 4 52.5 6t51.5 2q29 0 55.5 -2t53.5 -6zM377 1237q2 53 10.5 103.5t26.5 101.5q27 4 54.5 6t50.5 2t51 -2t53 -6q-2 -53 -10 -103.5t-27 -101.5 q-53 -6 -104 -6q-23 0 -51.5 1t-53.5 5zM795 1237q2 53 9 103.5t28 101.5q25 4 52.5 6t51.5 2q23 0 51.5 -2t53.5 -6q-4 -53 -12.5 -102.5t-24.5 -102.5q-53 -6 -104 -6q-23 0 -51.5 1t-53.5 5z" />
<glyph unicode="&#x100;" horiz-adv-x="1226" d="M741 1473q27 4 65 5t66 1q31 0 63 -1t56 -5l201 -1473q-59 -6 -119 -6q-49 0 -100 6l-39 346h-496l-149 -346q-49 -6 -111 -6q-29 0 -56.5 1t-49.5 5zM913 526l-84 711l-311 -711h395zM589 1640q0 74 25 136h582v-17q0 -35 -6.5 -71.5t-20.5 -71.5h-580v24z" />
<glyph unicode="&#x101;" horiz-adv-x="1134" d="M932 895q-25 6 -51.5 8t-59.5 2q-102 0 -183 -47t-139.5 -126t-89 -178t-30.5 -204q0 -98 35 -152.5t104 -54.5q63 0 122.5 41t109 114t85 170t56.5 208zM1049 446q-23 -123 -36.5 -211t-13.5 -153q0 -27 1 -42t6 -38q-23 -4 -49.5 -6t-49.5 -2q-20 0 -44.5 2t-47.5 6 q-4 23 -6 46.5t-2 57.5q0 23 5 62t11 70q-23 -45 -59.5 -91.5t-84.5 -84t-108.5 -62.5t-130.5 -25q-135 0 -203.5 89.5t-68.5 242.5q0 145 45 283.5t133 246t219 173t305 65.5q74 0 149 -11t132 -32zM1149 1421q0 -41 -5 -78.5t-19 -80.5h-553q0 41 4 79.5t20 79.5h553z" />
<glyph unicode="&#x102;" horiz-adv-x="1226" d="M741 1473q27 4 65 5t66 1q31 0 63 -1t56 -5l201 -1473q-59 -6 -119 -6q-49 0 -100 6l-39 346h-496l-149 -346q-49 -6 -111 -6q-29 0 -56.5 1t-49.5 5zM913 526l-84 711l-311 -711h395zM596 1821q23 4 43 7t43 3t42 -3t42 -7q2 -23 7 -43.5t19.5 -36t40 -24.5t66.5 -9 q39 0 66.5 7t46 21.5t31 35t22.5 49.5l45.5 7t44.5 3q23 0 42.5 -3t39.5 -7q-18 -76 -57 -124t-86 -75t-100.5 -37t-102.5 -10q-53 0 -106.5 11t-95.5 39t-67.5 76t-25.5 120z" />
<glyph unicode="&#x103;" horiz-adv-x="1134" d="M932 895q-25 6 -51.5 8t-59.5 2q-102 0 -183 -47t-139.5 -126t-89 -178t-30.5 -204q0 -98 35 -152.5t104 -54.5q63 0 122.5 41t109 114t85 170t56.5 208zM1049 446q-23 -123 -36.5 -211t-13.5 -153q0 -27 1 -42t6 -38q-23 -4 -49.5 -6t-49.5 -2q-20 0 -44.5 2t-47.5 6 q-4 23 -6 46.5t-2 57.5q0 23 5 62t11 70q-23 -45 -59.5 -91.5t-84.5 -84t-108.5 -62.5t-130.5 -25q-135 0 -203.5 89.5t-68.5 242.5q0 145 45 283.5t133 246t219 173t305 65.5q74 0 149 -11t132 -32zM557 1479q20 6 44 8t47 2t39 -2t38 -8q0 -25 5.5 -49.5t20.5 -44t41 -33 t66 -13.5q43 0 72 11.5t47.5 31t28.5 45t18 52.5l45.5 7t42.5 3q23 0 45.5 -2t42.5 -8q-18 -84 -56 -137.5t-85 -84t-102.5 -42t-110.5 -11.5q-51 0 -102 11.5t-93 42t-68 82t-26 130.5v9z" />
<glyph unicode="&#x104;" horiz-adv-x="1226" d="M741 1473q27 4 65 5t66 1q31 0 63 -1t56 -5l201 -1473q-29 -20 -65.5 -52t-69.5 -70t-56.5 -79t-23.5 -80q0 -80 96 -79q16 0 42 3t61 13q20 -41 20 -94q0 -20 -2 -31q-35 -12 -85 -19.5t-99 -7.5q-47 0 -88 9.5t-72 29t-49.5 52t-18.5 79.5t19.5 91.5t50.5 85t71 77.5 t83 68l-33 4l-39 346h-496l-149 -346q-49 -6 -111 -6q-29 0 -56.5 1t-49.5 5zM913 526l-84 711l-311 -711h395z" />
<glyph unicode="&#x105;" horiz-adv-x="1134" d="M1049 446q-23 -123 -36.5 -211t-13.5 -153q0 -27 2.5 -42l6.5 -38q-29 -20 -66 -53t-70.5 -71t-57 -79t-23.5 -80q0 -80 96 -79q18 0 43.5 3t60.5 13q8 -18 13.5 -43t5.5 -51q0 -20 -2 -31q-35 -12 -85.5 -19.5t-99.5 -7.5q-45 0 -86 9.5t-72.5 29t-50 52t-18.5 79.5 q0 49 19.5 94.5t50 86.5t69.5 77.5t80 69.5q-4 23 -6 46.5t-2 57.5q0 23 5 62t11 70q-23 -45 -59.5 -91.5t-84.5 -84t-108.5 -62.5t-130.5 -25q-135 0 -203.5 89.5t-68.5 242.5q0 145 45 283.5t133 246t219 173t305 65.5q74 0 149 -11t132 -32zM932 895q-25 6 -51.5 8 t-59.5 2q-102 0 -183 -47t-139.5 -126t-89 -178t-30.5 -204q0 -98 35 -152.5t104 -54.5q63 0 122.5 41t109 114t85 170t56.5 208z" />
<glyph unicode="&#x106;" horiz-adv-x="1181" d="M1112 217q39 -74 45 -174q-41 -18 -88 -30.5t-96 -20.5t-97.5 -12.5t-87.5 -4.5q-268 0 -412.5 152t-144.5 418q0 184 51.5 356t153 304t251 212t345.5 80q109 0 185.5 -15.5t130.5 -37.5q-10 -47 -23.5 -86t-40.5 -86q-59 23 -116.5 33t-129.5 10q-152 0 -262 -63.5 t-181 -169t-104.5 -240.5t-33.5 -279q0 -199 97 -301t282 -102q78 0 144 14t132 43zM1030 1817q25 4 58.5 6t68.5 2q37 0 75.5 -2t61.5 -6l-297 -226q-20 -4 -52 -5t-65 -1q-29 0 -56.5 2t-43.5 6z" />
<glyph unicode="&#x107;" horiz-adv-x="940" d="M862 184q16 -29 25.5 -68.5t9.5 -90.5q-59 -25 -137 -37.5t-142 -12.5q-225 0 -331.5 111t-106.5 309q0 123 40 245t119 219t192.5 156.5t261.5 59.5q68 0 129 -12t106 -29q-2 -39 -16.5 -85t-36.5 -81q-41 16 -89 27.5t-102 11.5q-100 0 -173.5 -44t-123 -114.5 t-73 -158.5t-23.5 -174q0 -139 68.5 -206t189.5 -67q53 0 105.5 9t107.5 32zM801 1477q33 4 65.5 6t67.5 2t65.5 -2t61.5 -6l-254 -260q-23 -4 -50.5 -6.5t-58.5 -2.5q-23 0 -47 2t-49 7z" />
<glyph unicode="&#x108;" horiz-adv-x="1181" d="M1112 217q39 -74 45 -174q-41 -18 -88 -30.5t-96 -20.5t-97.5 -12.5t-87.5 -4.5q-268 0 -412.5 152t-144.5 418q0 184 51.5 356t153 304t251 212t345.5 80q109 0 185.5 -15.5t130.5 -37.5q-10 -47 -23.5 -86t-40.5 -86q-59 23 -116.5 33t-129.5 10q-152 0 -262 -63.5 t-181 -169t-104.5 -240.5t-33.5 -279q0 -199 97 -301t282 -102q78 0 144 14t132 43zM924 1821q27 4 60.5 6t62.5 2q20 0 50 -2t56 -6l168 -226q-23 -4 -47 -6t-51 -2q-23 0 -50.5 2t-54.5 8l-92 123l-141 -125q-27 -4 -58.5 -6t-56.5 -2q-29 0 -56.5 2t-49.5 6z" />
<glyph unicode="&#x109;" horiz-adv-x="940" d="M862 184q16 -29 25.5 -68.5t9.5 -90.5q-59 -25 -137 -37.5t-142 -12.5q-225 0 -331.5 111t-106.5 309q0 123 40 245t119 219t192.5 156.5t261.5 59.5q68 0 129 -12t106 -29q-2 -39 -16.5 -85t-36.5 -81q-41 16 -89 27.5t-102 11.5q-100 0 -173.5 -44t-123 -114.5 t-73 -158.5t-23.5 -174q0 -139 68.5 -206t189.5 -67q53 0 105.5 9t107.5 32zM686 1477q25 4 59 6t62 2q23 0 57.5 -2t61.5 -8l152 -258q-18 -4 -42 -6.5t-51 -2.5q-25 0 -53.5 2t-52.5 7l-84 161l-143 -161q-25 -4 -56.5 -6.5t-56.5 -2.5q-29 0 -57.5 2t-49.5 7z" />
<glyph unicode="&#x10a;" horiz-adv-x="1181" d="M1112 217q39 -74 45 -174q-41 -18 -88 -30.5t-96 -20.5t-97.5 -12.5t-87.5 -4.5q-268 0 -412.5 152t-144.5 418q0 184 51.5 356t153 304t251 212t345.5 80q109 0 185.5 -15.5t130.5 -37.5q-10 -47 -23.5 -86t-40.5 -86q-59 23 -116.5 33t-129.5 10q-152 0 -262 -63.5 t-181 -169t-104.5 -240.5t-33.5 -279q0 -199 97 -301t282 -102q78 0 144 14t132 43zM902 1583q0 59 9 112.5t25 108.5q29 4 63 6t58 2q23 0 54.5 -2t58.5 -6q-4 -115 -39 -221q-29 -2 -61.5 -3t-55.5 -1q-25 0 -57 1t-55 3z" />
<glyph unicode="&#x10b;" horiz-adv-x="940" d="M862 184q16 -29 25.5 -68.5t9.5 -90.5q-59 -25 -137 -37.5t-142 -12.5q-225 0 -331.5 111t-106.5 309q0 123 40 245t119 219t192.5 156.5t261.5 59.5q68 0 129 -12t106 -29q-2 -39 -16.5 -85t-36.5 -81q-41 16 -89 27.5t-102 11.5q-100 0 -173.5 -44t-123 -114.5 t-73 -158.5t-23.5 -174q0 -139 68.5 -206t189.5 -67q53 0 105.5 9t107.5 32zM665 1243q0 59 9.5 113.5t25.5 107.5q29 4 62.5 6.5t58.5 2.5q23 0 54.5 -2.5t57.5 -6.5q-4 -115 -39 -221q-29 -2 -61.5 -3t-54.5 -1q-25 0 -57.5 1t-55.5 3z" />
<glyph unicode="&#x10c;" horiz-adv-x="1181" d="M1112 217q39 -74 45 -174q-41 -18 -88 -30.5t-96 -20.5t-97.5 -12.5t-87.5 -4.5q-268 0 -412.5 152t-144.5 418q0 184 51.5 356t153 304t251 212t345.5 80q109 0 185.5 -15.5t130.5 -37.5q-10 -47 -23.5 -86t-40.5 -86q-59 23 -116.5 33t-129.5 10q-152 0 -262 -63.5 t-181 -169t-104.5 -240.5t-33.5 -279q0 -199 97 -301t282 -102q78 0 144 14t132 43zM763 1821q23 4 47.5 6t51.5 2q23 0 52.5 -2t55.5 -6l80 -123l139 123q27 4 60 6t57 2q29 0 56.5 -2t50.5 -6l-263 -226q-25 -4 -57.5 -6t-60.5 -2q-20 0 -51 2t-58 6z" />
<glyph unicode="&#x10d;" horiz-adv-x="940" d="M862 184q16 -29 25.5 -68.5t9.5 -90.5q-59 -25 -137 -37.5t-142 -12.5q-225 0 -331.5 111t-106.5 309q0 123 40 245t119 219t192.5 156.5t261.5 59.5q68 0 129 -12t106 -29q-2 -39 -16.5 -85t-36.5 -81q-41 16 -89 27.5t-102 11.5q-100 0 -173.5 -44t-123 -114.5 t-73 -158.5t-23.5 -174q0 -139 68.5 -206t189.5 -67q53 0 105.5 9t107.5 32zM495 1475q41 10 93 10q25 0 56.5 -3t53.5 -7l90 -162l146 162q25 4 57.5 7t58.5 3q49 0 97 -10l-250 -261q-27 -4 -64 -5t-65 -1q-23 0 -54.5 2t-60.5 7z" />
<glyph unicode="&#x10e;" horiz-adv-x="1400" d="M449 1473q33 4 73.5 8t83.5 7t84 5t78 2q172 0 297 -43t205 -122t117.5 -189.5t37.5 -245.5q0 -195 -56 -361.5t-166.5 -291.5t-275.5 -196t-382 -71q-111 0 -202 7.5t-153 17.5zM430 172q27 -4 75 -7t93 -3q141 0 254 53t190.5 147.5t118.5 223.5t41 280 q0 217 -100.5 332t-325.5 115q-41 0 -76.5 -3t-70.5 -7zM610 1821q23 4 47.5 6t51.5 2q23 0 52.5 -2t55.5 -6l80 -123l139 123q27 4 60 6t57 2q29 0 56.5 -2t50.5 -6l-263 -226q-25 -4 -57.5 -6t-60.5 -2q-20 0 -51 2t-58 6z" />
<glyph unicode="&#x10f;" horiz-adv-x="1271" d="M934 895q-25 6 -51.5 8t-59.5 2q-102 0 -183 -47t-139.5 -126t-89 -178t-30.5 -204q0 -98 35 -152.5t104 -54.5q63 0 122.5 41t109 114t86 170t57.5 208zM1053 446q-23 -123 -35 -211t-12 -153v-42q0 -15 4 -38q-23 -4 -48.5 -6t-48.5 -2t-47 2t-45 6q-4 16 -7 35.5 t-3 54.5q0 25 5 69t15 81q-25 -45 -61.5 -92.5t-85.5 -86t-109.5 -63.5t-130.5 -25q-135 0 -204.5 89.5t-69.5 242.5q0 145 45 283.5t133 246t220 173t304 65.5q23 0 47.5 -2t41.5 -4q23 119 35 205t12 151v41q0 14 -2 35q23 4 54.5 6t53.5 2q20 0 46 -1t46 -5q6 -41 6 -76 q0 -47 -9 -120.5t-21 -141.5zM1381 1505q12 2 38.5 3t63.5 1q25 0 51.5 -1t42.5 -3l-96 -413q-35 -6 -82 -7q-53 0 -90 7z" />
<glyph unicode="&#x110;" horiz-adv-x="1425" d="M338 692h-154q0 41 5.5 79t19.5 75h156l110 627q33 4 74 8t84 7t84 5t78 2q172 0 297 -43t204.5 -122t117.5 -189.5t38 -245.5q0 -195 -57.5 -361.5t-169 -291.5t-275.5 -196t-379 -71q-111 0 -201.5 7.5t-152.5 17.5zM457 172q27 -4 75 -7t93 -3q141 0 253.5 53 t191.5 147.5t120 223.5t41 280q0 217 -98.5 332t-323.5 115q-41 0 -80 -3t-72 -7l-82 -457h353q0 -39 -5 -78t-20 -76h-354z" />
<glyph unicode="&#x111;" horiz-adv-x="1130" d="M977 1174h-287q0 35 5 68.5t20 70.5h282l2 14l6.5 57.5t2.5 40.5q0 25 -1 39.5t-3 36.5q23 4 55.5 6t54.5 2q20 0 46 -2t46 -6q6 -37 6 -76q0 -16 -3 -46l-7 -66h123q0 -74 -22 -139h-121l-129 -728q-23 -123 -36 -212t-13 -154q0 -25 1 -41t3 -39q-23 -2 -48.5 -3 t-48.5 -1q-20 0 -44.5 1t-47.5 3q-4 16 -6 35.5t-2 54.5q0 23 5 68t13 82q-23 -43 -60.5 -90.5t-86.5 -86t-109.5 -63.5t-130.5 -25q-135 0 -203.5 89.5t-68.5 242.5q0 143 43 273.5t129 228.5t216 155.5t304 57.5q20 0 45 -2t43 -6zM924 840q-49 12 -111 12 q-102 0 -182 -40t-135.5 -107.5t-85 -158.5t-29.5 -196q0 -98 35 -152.5t102 -54.5q63 0 122.5 41t109 113t86 169t57.5 210z" />
<glyph unicode="&#x112;" horiz-adv-x="1073" d="M446 1473h781q0 -92 -33 -185h-569l-74 -420h455q0 -94 -33 -184h-455l-44 -251l-44 -251h586l-10.5 -92t-22.5 -90h-795zM567 1640q0 74 25 136h582v-17q0 -35 -6.5 -71.5t-20.5 -71.5h-580v24z" />
<glyph unicode="&#x113;" horiz-adv-x="1019" d="M381 418q6 -137 69.5 -207t196.5 -70q82 0 156 19.5t133 42.5q18 -31 26.5 -74t8.5 -86q-31 -14 -75 -26.5t-92 -21.5t-97.5 -14.5t-90.5 -5.5q-121 0 -203.5 32t-135 88.5t-76 133t-23.5 166.5q0 125 42 247t121 218t188.5 155.5t244.5 59.5t214 -66.5t79 -177.5 q0 -90 -44 -156.5t-122 -113.5t-183.5 -77.5t-230.5 -49.5zM510 590q104 18 173 41.5t110 51.5t57 58.5t16 67.5q0 47 -32.5 76.5t-94.5 29.5q-66 0 -121 -29.5t-99 -77.5t-74.5 -110.5t-47.5 -128.5zM1071 1421q0 -41 -5 -78.5t-19 -80.5h-553q0 41 4 79.5t20 79.5h553z " />
<glyph unicode="&#x114;" horiz-adv-x="1073" d="M446 1473h781q0 -92 -33 -185h-569l-74 -420h455q0 -94 -33 -184h-455l-44 -251l-44 -251h586l-10.5 -92t-22.5 -90h-795zM557 1821q23 4 43 7t43 3t42 -3t42 -7q2 -23 7 -43.5t19.5 -36t40 -24.5t66.5 -9q39 0 66.5 7t46 21.5t31 35t22.5 49.5l45.5 7t44.5 3 q23 0 42.5 -3t39.5 -7q-18 -76 -57 -124t-86 -75t-100.5 -37t-102.5 -10q-53 0 -106.5 11t-95.5 39t-67.5 76t-25.5 120z" />
<glyph unicode="&#x115;" horiz-adv-x="1019" d="M381 418q6 -137 69.5 -207t196.5 -70q82 0 156 19.5t133 42.5q18 -31 26.5 -74t8.5 -86q-31 -14 -75 -26.5t-92 -21.5t-97.5 -14.5t-90.5 -5.5q-121 0 -203.5 32t-135 88.5t-76 133t-23.5 166.5q0 125 42 247t121 218t188.5 155.5t244.5 59.5t214 -66.5t79 -177.5 q0 -90 -44 -156.5t-122 -113.5t-183.5 -77.5t-230.5 -49.5zM510 590q104 18 173 41.5t110 51.5t57 58.5t16 67.5q0 47 -32.5 76.5t-94.5 29.5q-66 0 -121 -29.5t-99 -77.5t-74.5 -110.5t-47.5 -128.5zM477 1479q20 6 44 8t47 2t39 -2t38 -8q0 -25 5.5 -49.5t20.5 -44t41 -33 t66 -13.5q43 0 72 11.5t47.5 31t28.5 45t18 52.5l45.5 7t42.5 3q23 0 45.5 -2t42.5 -8q-18 -84 -56 -137.5t-85 -84t-102.5 -42t-110.5 -11.5q-51 0 -102 11.5t-93 42t-68 82t-26 130.5v9z" />
<glyph unicode="&#x116;" horiz-adv-x="1073" d="M446 1473h781q0 -92 -33 -185h-569l-74 -420h455q0 -94 -33 -184h-455l-44 -251l-44 -251h586l-10.5 -92t-22.5 -90h-795zM748 1583q0 59 9 112.5t25 108.5q29 4 63 6t58 2q23 0 54.5 -2t58.5 -6q-4 -115 -39 -221q-29 -2 -61.5 -3t-55.5 -1q-25 0 -57 1t-55 3z" />
<glyph unicode="&#x117;" horiz-adv-x="1019" d="M381 418q6 -137 69.5 -207t196.5 -70q82 0 156 19.5t133 42.5q18 -31 26.5 -74t8.5 -86q-31 -14 -75 -26.5t-92 -21.5t-97.5 -14.5t-90.5 -5.5q-121 0 -203.5 32t-135 88.5t-76 133t-23.5 166.5q0 125 42 247t121 218t188.5 155.5t244.5 59.5t214 -66.5t79 -177.5 q0 -90 -44 -156.5t-122 -113.5t-183.5 -77.5t-230.5 -49.5zM510 590q104 18 173 41.5t110 51.5t57 58.5t16 67.5q0 47 -32.5 76.5t-94.5 29.5q-66 0 -121 -29.5t-99 -77.5t-74.5 -110.5t-47.5 -128.5zM635 1243q0 59 9.5 113.5t25.5 107.5q29 4 62.5 6.5t58.5 2.5 q23 0 54.5 -2.5t57.5 -6.5q-4 -115 -39 -221q-29 -2 -61.5 -3t-54.5 -1q-25 0 -57.5 1t-55.5 3z" />
<glyph unicode="&#x118;" horiz-adv-x="1073" d="M446 1473h781q0 -92 -33 -185h-569l-74 -420h455q0 -94 -33 -184h-455l-44 -251l-44 -251h586l-10.5 -92t-22.5 -90h-94q-29 -20 -66 -52t-70.5 -70t-57 -79t-23.5 -78q0 -80 98 -79q16 0 42 3t60 13q8 -20 13.5 -45t5.5 -49q0 -20 -2 -31q-35 -12 -84 -20.5t-100 -8.5 q-45 0 -86 9.5t-72 29t-49.5 52t-18.5 79.5q0 49 19.5 94.5t52.5 86.5t74 77.5t84 67.5h-521z" />
<glyph unicode="&#x119;" horiz-adv-x="1019" d="M616 -25q-121 0 -203.5 32t-135 88.5t-76 133t-23.5 166.5q0 125 42 247t121 218t188.5 155.5t244.5 59.5t214 -66.5t79 -177.5q0 -90 -44 -156.5t-122 -113.5t-183.5 -77.5t-230.5 -49.5l-106 -16q6 -137 69.5 -207t196.5 -70q82 0 156 19.5t133 42.5q18 -31 26.5 -74 t8.5 -86q-29 -12 -41 -18l-21 -11q-31 -16 -78 -44.5t-90 -66.5t-73.5 -84t-30.5 -98q0 -80 96 -79q18 0 44 3t61 13q8 -20 13 -45t5 -51q0 -20 -2 -29q-35 -12 -85 -20.5t-99 -8.5q-47 0 -88 9.5t-72 29t-49.5 52t-18.5 79.5q0 88 58.5 165t136.5 136h-21zM510 590 q104 18 173 41.5t110 51.5t57 58.5t16 67.5q0 47 -32.5 76.5t-94.5 29.5q-66 0 -121 -29.5t-99 -77.5t-74.5 -110.5t-47.5 -128.5z" />
<glyph unicode="&#x11a;" horiz-adv-x="1073" d="M446 1473h781q0 -92 -33 -185h-569l-74 -420h455q0 -94 -33 -184h-455l-44 -251l-44 -251h586l-10.5 -92t-22.5 -90h-795zM581 1821q23 4 47.5 6t51.5 2q23 0 52.5 -2t55.5 -6l80 -123l139 123q27 4 60 6t57 2q29 0 56.5 -2t50.5 -6l-263 -226q-25 -4 -57.5 -6t-60.5 -2 q-20 0 -51 2t-58 6z" />
<glyph unicode="&#x11b;" horiz-adv-x="1019" d="M381 418q6 -137 69.5 -207t196.5 -70q82 0 156 19.5t133 42.5q18 -31 26.5 -74t8.5 -86q-31 -14 -75 -26.5t-92 -21.5t-97.5 -14.5t-90.5 -5.5q-121 0 -203.5 32t-135 88.5t-76 133t-23.5 166.5q0 125 42 247t121 218t188.5 155.5t244.5 59.5t214 -66.5t79 -177.5 q0 -90 -44 -156.5t-122 -113.5t-183.5 -77.5t-230.5 -49.5zM510 590q104 18 173 41.5t110 51.5t57 58.5t16 67.5q0 47 -32.5 76.5t-94.5 29.5q-66 0 -121 -29.5t-99 -77.5t-74.5 -110.5t-47.5 -128.5zM495 1475q41 10 93 10q25 0 56.5 -3t53.5 -7l90 -162l146 162 q25 4 57.5 7t58.5 3q49 0 97 -10l-250 -261q-27 -4 -64 -5t-65 -1q-23 0 -54.5 2t-60.5 7z" />
<glyph unicode="&#x11c;" horiz-adv-x="1345" d="M1118 760q25 4 52.5 6t52.5 2q29 0 54.5 -2t49.5 -6l-64 -358l-63 -357q-80 -33 -192.5 -51.5t-216.5 -18.5q-133 0 -237.5 41t-176.5 116t-109 180.5t-37 232.5q0 188 50.5 360t152 304t251 210t349.5 78q102 0 181 -16.5t133 -38.5q-10 -47 -23.5 -86t-40.5 -86 q-57 23 -114.5 33t-133.5 10q-152 0 -261 -63.5t-180 -169t-104.5 -240.5t-33.5 -279q0 -205 98 -303t272 -98q51 0 101.5 7t87.5 21zM938 1821q27 4 60.5 6t62.5 2q20 0 50 -2t56 -6l168 -226q-23 -4 -47 -6t-51 -2q-23 0 -50.5 2t-54.5 8l-92 123l-141 -125 q-27 -4 -58.5 -6t-56.5 -2q-29 0 -56.5 2t-49.5 6z" />
<glyph unicode="&#x11d;" horiz-adv-x="1126" d="M825 238q-23 -45 -59.5 -91.5t-85.5 -84t-109.5 -62.5t-130.5 -25q-135 0 -203.5 89.5t-68.5 242.5q0 145 45 283.5t133 246t219 173t305 65.5q74 0 151 -11t134 -32l-91 -512l-91 -512q-25 -139 -82 -235.5t-141 -156.5t-190.5 -88t-229.5 -28q-70 0 -139.5 12.5 t-114.5 30.5q2 88 45 164q41 -10 96 -21.5t121 -11.5q92 0 163.5 18.5t127 61.5t93.5 113t60 174zM932 893q-49 12 -111 12q-102 0 -184 -47t-139.5 -126t-89 -178t-31.5 -204q0 -98 37 -152.5t104 -54.5q66 0 124 41t106.5 113t84 169t58.5 210zM733 1477q25 4 59 6t62 2 q23 0 57.5 -2t61.5 -8l152 -258q-18 -4 -42 -6.5t-51 -2.5q-25 0 -53.5 2t-52.5 7l-84 161l-143 -161q-25 -4 -56.5 -6.5t-56.5 -2.5q-29 0 -57.5 2t-49.5 7z" />
<glyph unicode="&#x11e;" horiz-adv-x="1345" d="M1118 760q25 4 52.5 6t52.5 2q29 0 54.5 -2t49.5 -6l-64 -358l-63 -357q-80 -33 -192.5 -51.5t-216.5 -18.5q-133 0 -237.5 41t-176.5 116t-109 180.5t-37 232.5q0 188 50.5 360t152 304t251 210t349.5 78q102 0 181 -16.5t133 -38.5q-10 -47 -23.5 -86t-40.5 -86 q-57 23 -114.5 33t-133.5 10q-152 0 -261 -63.5t-180 -169t-104.5 -240.5t-33.5 -279q0 -205 98 -303t272 -98q51 0 101.5 7t87.5 21zM729 1821q23 4 43 7t43 3t42 -3t42 -7q2 -23 7 -43.5t19.5 -36t40 -24.5t66.5 -9q39 0 66.5 7t46 21.5t31 35t22.5 49.5l45.5 7t44.5 3 q23 0 42.5 -3t39.5 -7q-18 -76 -57 -124t-86 -75t-100.5 -37t-102.5 -10q-53 0 -106.5 11t-95.5 39t-67.5 76t-25.5 120z" />
<glyph unicode="&#x11f;" horiz-adv-x="1126" d="M827 238q-23 -45 -59.5 -91.5t-85.5 -84t-109.5 -62.5t-130.5 -25q-135 0 -203.5 89.5t-68.5 242.5q0 145 45 283.5t133 246t219 173t305 65.5q74 0 151 -11t134 -32l-91 -512l-91 -512q-25 -139 -82 -235.5t-141 -156.5t-190.5 -88t-229.5 -28q-70 0 -139.5 12.5 t-114.5 30.5q2 88 45 164q41 -10 96 -21.5t121 -11.5q92 0 163.5 18.5t127 61.5t93.5 113t60 174zM934 893q-49 12 -111 12q-102 0 -184 -47t-139.5 -126t-89 -178t-31.5 -204q0 -98 37 -152.5t104 -54.5q66 0 124 41t106.5 113t84 169t58.5 210zM534 1479q20 6 44 8t47 2 t39 -2t38 -8q0 -25 5.5 -49.5t20.5 -44t41 -33t66 -13.5q43 0 72 11.5t47.5 31t28.5 45t18 52.5l45.5 7t42.5 3q23 0 45.5 -2t42.5 -8q-18 -84 -56 -137.5t-85 -84t-102.5 -42t-110.5 -11.5q-51 0 -102 11.5t-93 42t-68 82t-26 130.5v9z" />
<glyph unicode="&#x120;" horiz-adv-x="1345" d="M1118 760q25 4 52.5 6t52.5 2q29 0 54.5 -2t49.5 -6l-64 -358l-63 -357q-80 -33 -192.5 -51.5t-216.5 -18.5q-133 0 -237.5 41t-176.5 116t-109 180.5t-37 232.5q0 188 50.5 360t152 304t251 210t349.5 78q102 0 181 -16.5t133 -38.5q-10 -47 -23.5 -86t-40.5 -86 q-57 23 -114.5 33t-133.5 10q-152 0 -261 -63.5t-180 -169t-104.5 -240.5t-33.5 -279q0 -205 98 -303t272 -98q51 0 101.5 7t87.5 21zM912 1583q0 59 9 112.5t25 108.5q29 4 63 6t58 2q23 0 54.5 -2t58.5 -6q-4 -115 -39 -221q-29 -2 -61.5 -3t-55.5 -1q-25 0 -57 1t-55 3z " />
<glyph unicode="&#x121;" horiz-adv-x="1126" d="M825 238q-23 -45 -59.5 -91.5t-85.5 -84t-109.5 -62.5t-130.5 -25q-135 0 -203.5 89.5t-68.5 242.5q0 145 45 283.5t133 246t219 173t305 65.5q74 0 151 -11t134 -32l-91 -512l-91 -512q-25 -139 -82 -235.5t-141 -156.5t-190.5 -88t-229.5 -28q-70 0 -139.5 12.5 t-114.5 30.5q2 88 45 164q41 -10 96 -21.5t121 -11.5q92 0 163.5 18.5t127 61.5t93.5 113t60 174zM932 893q-49 12 -111 12q-102 0 -184 -47t-139.5 -126t-89 -178t-31.5 -204q0 -98 37 -152.5t104 -54.5q66 0 124 41t106.5 113t84 169t58.5 210zM731 1243q0 59 9.5 113.5 t25.5 107.5q29 4 62.5 6.5t58.5 2.5q23 0 54.5 -2.5t57.5 -6.5q-4 -115 -39 -221q-29 -2 -61.5 -3t-54.5 -1q-25 0 -57.5 1t-55.5 3z" />
<glyph unicode="&#x122;" horiz-adv-x="1345" d="M1118 760q25 4 52.5 6t52.5 2q29 0 54.5 -2t49.5 -6l-64 -358l-63 -357q-80 -33 -192.5 -51.5t-216.5 -18.5q-133 0 -237.5 41t-176.5 116t-109 180.5t-37 232.5q0 188 50.5 360t152 304t251 210t349.5 78q102 0 181 -16.5t133 -38.5q-10 -47 -23.5 -86t-40.5 -86 q-57 23 -114.5 33t-133.5 10q-152 0 -261 -63.5t-180 -169t-104.5 -240.5t-33.5 -279q0 -205 98 -303t272 -98q51 0 101.5 7t87.5 21zM653 -133q25 4 53.5 6t52.5 2q29 0 53.5 -2t53.5 -6l-172 -356q-23 -4 -48.5 -6.5t-47.5 -2.5q-23 0 -45.5 2t-44.5 7z" />
<glyph unicode="&#x123;" horiz-adv-x="1126" d="M825 238q-23 -45 -59.5 -91.5t-85.5 -84t-109.5 -62.5t-130.5 -25q-135 0 -203.5 89.5t-68.5 242.5q0 145 45 283.5t133 246t219 173t305 65.5q74 0 151 -11t134 -32l-91 -512l-91 -512q-25 -139 -82 -235.5t-141 -156.5t-190.5 -88t-229.5 -28q-70 0 -139.5 12.5 t-114.5 30.5q2 88 45 164q41 -10 96 -21.5t121 -11.5q92 0 163.5 18.5t127 61.5t93.5 113t60 174zM932 893q-49 12 -111 12q-102 0 -184 -47t-139.5 -126t-89 -178t-31.5 -204q0 -98 37 -152.5t104 -54.5q66 0 124 41t106.5 113t84 169t58.5 210zM863 1479q25 4 49 6t47 2 q53 0 100 -8l-151 -293q-27 -6 -51.5 -8t-49.5 -2q-29 0 -56.5 2t-57.5 8z" />
<glyph unicode="&#x124;" horiz-adv-x="1363" d="M449 1473q25 4 51 6t55 2q25 0 52.5 -2t51.5 -6l-106 -607h565l105 607q25 4 51 6t55 2q25 0 53.5 -2t51.5 -6l-258 -1473q-25 -4 -52.5 -6t-56.5 -2t-54.5 2t-47.5 6l118 682h-563l-119 -682q-25 -4 -53.5 -6t-54.5 -2q-29 0 -54.5 2t-48.5 6zM905 1821q27 4 60.5 6 t62.5 2q20 0 50 -2t56 -6l168 -226q-23 -4 -47 -6t-51 -2q-23 0 -50.5 2t-54.5 8l-92 123l-141 -125q-27 -4 -58.5 -6t-56.5 -2q-29 0 -56.5 2t-49.5 6z" />
<glyph unicode="&#x125;" horiz-adv-x="1161" d="M356 1079q20 115 32.5 198t12.5 148q0 25 -1 39.5t-3 36.5q23 4 55.5 6t55.5 2q20 0 46 -2t46 -6q6 -37 6 -76q0 -23 -3 -54.5t-7 -66t-10 -71.5t-13 -70q-14 -70 -26 -138l-25 -138q57 76 147.5 131t204.5 55q125 0 196 -65.5t71 -202.5q0 -31 -4 -68t-11 -73l-116 -664 q-23 -4 -52.5 -5t-52.5 -1t-50.5 1t-47.5 5l55 315l56 316l8 61q4 31 4 53q0 78 -42 115t-108 37q-47 0 -96 -20.5t-93 -70.5t-81 -135t-59 -214q-23 -117 -42 -230l-40 -227q-29 -4 -59.5 -5t-59.5 -1q-10 0 -37 1t-47 5zM563 1821q27 4 60.5 6t62.5 2q20 0 50 -2t56 -6 l168 -226q-23 -4 -47 -6t-51 -2q-23 0 -50.5 2t-54.5 8l-92 123l-141 -125q-27 -4 -58.5 -6t-56.5 -2q-29 0 -56.5 2t-49.5 6z" />
<glyph unicode="&#x126;" horiz-adv-x="1419" d="M414 1116h-135q0 41 5 79t19 75h137l35 203q27 4 52.5 6t54.5 2q25 0 53.5 -2t50.5 -6l-35 -203h563l37 203q23 4 50.5 6t54.5 2t54.5 -2t49.5 -6l-35 -203h129q0 -39 -5 -78t-19 -76h-133l-195 -1116q-25 -4 -52.5 -6t-55.5 -2q-27 0 -52.5 2t-48.5 6l119 682h-565 l-119 -682q-25 -4 -53.5 -6t-55.5 -2q-29 0 -54 2t-48 6zM1145 866l43 250h-565l-43 -250h565z" />
<glyph unicode="&#x127;" horiz-adv-x="1161" d="M375 1176h-117q0 35 5 68.5t20 70.5h108q4 31 7 57.5t3 52.5q0 25 -1 39.5t-3 36.5q23 4 55.5 6t55.5 2q20 0 46 -2t46 -6q6 -37 6 -76q0 -23 -3 -50t-7 -60h297q0 -35 -4 -69t-19 -70h-297l-65 -355q57 76 147 131.5t205 55.5q127 0 196.5 -65.5t69.5 -203.5 q0 -31 -4 -67.5t-10 -73.5l-102 -598q-23 -4 -52.5 -5t-52.5 -1t-50.5 1t-47.5 5l98 565l8 61q4 30 5 52q0 82 -42 117.5t-108 35.5q-47 0 -97 -20t-94.5 -70.5t-81 -135.5t-59.5 -216l-67 -389q-29 -4 -59.5 -5t-59.5 -1q-10 0 -37 1t-47 5z" />
<glyph unicode="&#x128;" horiz-adv-x="589" d="M449 1473q27 4 53 6t53 2q29 0 54.5 -2t49.5 -6l-258 -1473q-29 -4 -54 -6t-54 -2t-54.5 2t-48.5 6zM248 1737q39 41 93 71.5t120 30.5q43 0 78 -11t67.5 -25.5t66.5 -26t75 -11.5q35 0 62.5 11.5t68.5 46.5q16 -20 35.5 -53t23.5 -62q-41 -37 -95 -67.5t-120 -30.5 q-43 0 -78 11t-67.5 24.5t-66.5 24.5t-70 11q-39 0 -67 -12t-67 -43q-18 20 -36.5 51t-22.5 60z" />
<glyph unicode="&#x129;" horiz-adv-x="583" d="M146 1352q39 41 93 71.5t120 30.5q43 0 77.5 -11t67.5 -24.5t67 -25t74 -11.5q35 0 64 10.5t70 45.5q16 -20 34.5 -52t22.5 -63q-39 -37 -94.5 -67.5t-120.5 -30.5q-43 0 -78 11t-67.5 25.5t-66.5 25.5t-71 11q-39 0 -66.5 -13t-66.5 -44q-18 20 -36.5 51t-22.5 60z M369 889h-127q0 41 5 80t21 82h328l-184 -1051q-23 -4 -52.5 -5t-52.5 -1t-47 1t-47 5z" />
<glyph unicode="&#x12a;" horiz-adv-x="589" d="M449 1473q27 4 53 6t53 2q29 0 54.5 -2t49.5 -6l-258 -1473q-29 -4 -54 -6t-54 -2t-54.5 2t-48.5 6zM280 1640q0 74 25 136h582v-17q0 -35 -6.5 -71.5t-20.5 -71.5h-580v24z" />
<glyph unicode="&#x12b;" horiz-adv-x="583" d="M770 1421q0 -41 -5 -78.5t-19 -80.5h-553q0 41 4 79.5t20 79.5h553zM369 889h-127q0 41 5 80t21 82h328l-184 -1051q-23 -4 -52.5 -5t-52.5 -1t-47 1t-47 5z" />
<glyph unicode="&#x12c;" horiz-adv-x="589" d="M449 1473q27 4 53 6t53 2q29 0 54.5 -2t49.5 -6l-258 -1473q-29 -4 -54 -6t-54 -2t-54.5 2t-48.5 6zM283 1821q23 4 43 7t43 3t42 -3t42 -7q2 -23 7 -43.5t19.5 -36t40 -24.5t66.5 -9q39 0 66.5 7t46 21.5t31 35t22.5 49.5l45.5 7t44.5 3q23 0 42.5 -3t39.5 -7 q-18 -76 -57 -124t-86 -75t-100.5 -37t-102.5 -10q-53 0 -106.5 11t-95.5 39t-67.5 76t-25.5 120z" />
<glyph unicode="&#x12d;" horiz-adv-x="583" d="M200 1479q20 6 44 8t47 2t39 -2t38 -8q0 -25 5.5 -49.5t20.5 -44t41 -33t66 -13.5q43 0 72 11.5t47.5 31t28.5 45t18 52.5l45.5 7t42.5 3q23 0 45.5 -2t42.5 -8q-18 -84 -56 -137.5t-85 -84t-102.5 -42t-110.5 -11.5q-51 0 -102 11.5t-93 42t-68 82t-26 130.5v9zM369 889 h-127q0 41 5 80t21 82h328l-184 -1051q-23 -4 -52.5 -5t-52.5 -1t-47 1t-47 5z" />
<glyph unicode="&#x12e;" horiz-adv-x="589" d="M449 1473q27 4 53 6t53 2q29 0 54.5 -2t49.5 -6l-258 -1473q-29 -20 -65.5 -52t-69.5 -70t-56.5 -79t-23.5 -80q0 -80 97 -79q16 0 41.5 3t60.5 13q12 -25 17.5 -58.5t0.5 -66.5q-35 -12 -85 -19.5t-99 -7.5q-47 0 -88 9.5t-71.5 29t-49 52t-18.5 79.5t19.5 92.5t50 86.5 t70.5 77.5t83 67.5l-25 2z" />
<glyph unicode="&#x12f;" horiz-adv-x="583" d="M369 889h-127q0 41 5 80t21 82h328l-184 -1051q-29 -20 -66 -52t-69.5 -70t-56 -79t-23.5 -80q0 -80 98 -79q16 0 41.5 3t60.5 13q8 -18 13.5 -43t5.5 -51q0 -20 -2 -31q-35 -12 -84 -19.5t-101 -7.5q-45 0 -86 9.5t-72.5 29t-50 52t-18.5 79.5t19.5 92.5t52 86.5 t72.5 77.5t83 67.5l-16 2zM399 1243q0 59 10.5 112.5t26.5 108.5q29 4 61.5 6.5t57.5 2.5t56.5 -2.5t58.5 -6.5q-2 -59 -12.5 -113.5t-26.5 -107.5q-29 -4 -61.5 -5t-57.5 -1q-23 0 -55.5 1t-57.5 5z" />
<glyph unicode="&#x130;" horiz-adv-x="589" d="M449 1473q27 4 53 6t53 2q29 0 54.5 -2t49.5 -6l-258 -1473q-29 -4 -54 -6t-54 -2t-54.5 2t-48.5 6zM463 1583q0 59 9 112.5t25 108.5q29 4 63 6t58 2q23 0 54.5 -2t58.5 -6q-4 -115 -39 -221q-29 -2 -61.5 -3t-55.5 -1q-25 0 -57 1t-55 3z" />
<glyph unicode="&#x131;" horiz-adv-x="583" d="M369 889h-127q0 41 5 80t21 82h328l-184 -1051q-23 -4 -52.5 -5t-52.5 -1t-47 1t-47 5z" />
<glyph unicode="&#x132;" horiz-adv-x="1363" d="M439 1473q27 4 53 6t53 2q29 0 54.5 -2t49.5 -6l-258 -1473q-29 -4 -54 -6t-54 -2t-54.5 2t-48.5 6zM1202 1290h-246q0 45 7.5 92.5t23.5 90.5h455l-187 -1063q-23 -123 -57.5 -207t-87.5 -134.5t-127 -72t-174 -21.5q-57 0 -102.5 7.5t-84.5 19.5q4 47 12.5 92t30.5 86 q23 -6 59 -14t77 -8q43 0 80.5 6t68.5 27.5t53.5 62.5t34.5 108z" />
<glyph unicode="&#x133;" horiz-adv-x="1169" d="M369 889h-127q0 41 5 80t21 82h328l-184 -1051q-23 -4 -52.5 -5t-52.5 -1t-47 1t-47 5zM367 1268q0 59 10 112.5t26 108.5q29 4 62 6t57 2q25 0 56.5 -2t58.5 -6q-2 -59 -12.5 -113.5t-26.5 -107.5q-29 -4 -61.5 -5t-57.5 -1q-23 0 -55 1t-57 5zM951 889h-127q0 41 5 79 t21 83h328l-209 -1192q-63 -358 -391 -359q-49 0 -93 7.5t-79 19.5q0 33 11 78t28 78q23 -8 56.5 -13.5t62.5 -5.5q76 0 132 45t76 162zM949 1268q0 59 10 112.5t26 108.5q29 4 62 6t57 2q25 0 56.5 -2t58.5 -6q-2 -59 -12.5 -113.5t-26.5 -107.5q-29 -4 -61.5 -5t-57.5 -1 q-23 0 -55 1t-57 5z" />
<glyph unicode="&#x134;" horiz-adv-x="806" d="M643 1290h-246q0 45 7.5 92.5t23.5 90.5h455l-187 -1063q-23 -123 -57.5 -207t-87.5 -134.5t-127 -72t-174 -21.5q-57 0 -102.5 7.5t-84.5 19.5q4 47 12.5 92t30.5 86q23 -6 59 -14t77 -8q43 0 80.5 6t68.5 27.5t53.5 62.5t34.5 108zM617 1821q27 4 60.5 6t62.5 2 q20 0 50 -2t56 -6l168 -226q-23 -4 -47 -6t-51 -2q-23 0 -50.5 2t-54.5 8l-92 123l-141 -125q-27 -4 -58.5 -6t-56.5 -2q-29 0 -56.5 2t-49.5 6z" />
<glyph unicode="&#x135;" horiz-adv-x="581" d="M373 889h-129q0 35 6 77t22 85h326l-209 -1192q-63 -358 -391 -359q-49 0 -93 7.5t-79 19.5q0 31 11 78t28 78q23 -8 56.5 -13.5t62.5 -5.5q76 0 132 45t77 162zM391 1477q25 4 59 6t62 2q23 0 57.5 -2t61.5 -8l152 -258q-18 -4 -42 -6.5t-51 -2.5q-25 0 -53.5 2t-52.5 7 l-84 161l-143 -161q-25 -4 -56.5 -6.5t-56.5 -2.5q-29 0 -57.5 2t-49.5 7z" />
<glyph unicode="&#x136;" horiz-adv-x="1193" d="M449 1473q51 6 106 6q53 0 102 -6l-258 -1473q-53 -6 -106 -6q-57 0 -103 6zM594 748l563 725q31 4 58.5 5t52.5 1q27 0 61.5 -1t63.5 -5l-570 -723l353 -750q-66 -6 -117 -6q-49 0 -111 6zM563 -133q25 4 53.5 6t52.5 2q29 0 53.5 -2t53.5 -6l-172 -356 q-23 -4 -48.5 -6.5t-47.5 -2.5q-23 0 -45.5 2t-44.5 7z" />
<glyph unicode="&#x137;" horiz-adv-x="1032" d="M535 545l215 268q57 72 94 131.5t47 106.5q29 4 53.5 6t52.5 2q29 0 57.5 -2t55.5 -6q-8 -47 -34.5 -91.5t-74.5 -107.5l-125 -152l-128 -151l249 -549q-59 -6 -106 -6q-53 0 -111 6zM358 1079q20 115 31.5 198t11.5 148v39q0 14 -2 37q23 4 54.5 6t54.5 2t47.5 -2 t46.5 -6q2 -18 3 -36.5t1 -39.5q0 -37 -6 -91t-16 -113l-215 -1221q-23 -4 -52.5 -5t-52.5 -1t-49.5 1t-46.5 5zM461 -133q27 4 54.5 6t51.5 2q29 0 53.5 -2t53.5 -6l-172 -356q-23 -4 -48.5 -6.5t-48.5 -2.5t-45 2t-45 7z" />
<glyph unicode="&#x138;" horiz-adv-x="1042" d="M535 545l215 268q57 72 94 131.5t47 106.5q29 4 53.5 6t52.5 2q29 0 57.5 -2t55.5 -6q-8 -47 -34.5 -91.5t-74.5 -107.5l-253 -303l249 -549q-59 -6 -106 -6q-53 0 -111 6zM352 1051q23 4 52.5 6t56.5 2q23 0 46 -2t46 -6l-184 -1051q-23 -4 -52.5 -5t-52.5 -1t-49.5 1 t-46.5 5z" />
<glyph unicode="&#x139;" horiz-adv-x="1003" d="M446 1473q25 4 52.5 6t56.5 2q27 0 51.5 -2t48.5 -6l-225 -1289h549q-4 -53 -10 -96t-25 -88h-756zM643 1817q25 4 58.5 6t68.5 2q37 0 75.5 -2t61.5 -6l-297 -226q-20 -4 -52 -5t-65 -1q-29 0 -56.5 2t-43.5 6z" />
<glyph unicode="&#x13a;" horiz-adv-x="608" d="M354 1079q20 115 31.5 198t13.5 148v39q0 14 -2 37q23 4 54.5 6t54.5 2q20 0 46 -2t48 -6q4 -18 4 -37v-39q0 -23 -3 -54.5t-7 -66t-10 -71.5t-13 -70l-159 -864q-6 -35 -6 -55q0 -33 9 -52.5t23.5 -28.5t31.5 -11t34 -2q18 0 41.5 4t40.5 8q18 -53 18 -127 q0 -8 -1 -15.5t-1 -13.5q-31 -10 -75 -15t-87 -5q-53 0 -97 10t-75.5 36.5t-49 70.5t-17.5 110q0 39 8 82l16 84zM574 1817q25 4 58.5 6t68.5 2q37 0 75.5 -2t61.5 -6l-297 -226q-20 -4 -52 -5t-65 -1q-29 0 -56.5 2t-43.5 6z" />
<glyph unicode="&#x13b;" horiz-adv-x="1003" d="M446 1473q25 4 52.5 6t56.5 2q27 0 51.5 -2t48.5 -6l-225 -1289h549q-4 -53 -10 -96t-25 -88h-756zM455 -133q25 4 53.5 6t52.5 2q29 0 53.5 -2t53.5 -6l-172 -356q-23 -4 -48.5 -6.5t-47.5 -2.5q-23 0 -45.5 2t-44.5 7z" />
<glyph unicode="&#x13c;" horiz-adv-x="608" d="M354 1079q20 115 31.5 198t13.5 148v39q0 14 -2 37q23 4 54.5 6t54.5 2q20 0 46 -2t48 -6q4 -18 4 -37v-39q0 -23 -3 -54.5t-7 -66t-10 -71.5t-13 -70l-159 -864q-6 -35 -6 -55q0 -33 9 -52.5t23.5 -28.5t31.5 -11t34 -2q18 0 41.5 4t40.5 8q18 -53 18 -127 q0 -8 -1 -15.5t-1 -13.5q-31 -10 -75 -15t-87 -5q-53 0 -97 10t-75.5 36.5t-49 70.5t-17.5 110q0 39 8 82l16 84zM252 -133q27 4 54.5 6t51.5 2q29 0 53.5 -2t53.5 -6l-172 -356q-23 -4 -48.5 -6.5t-48.5 -2.5t-45 2t-45 7z" />
<glyph unicode="&#x13d;" horiz-adv-x="1003" d="M446 1473q25 4 52.5 6t56.5 2q27 0 51.5 -2t48.5 -6l-225 -1289h549q-4 -53 -10 -96t-25 -88h-756zM883 1478q12 2 38.5 3t63.5 1q25 0 51.5 -1t42.5 -3l-96 -413q-35 -6 -82 -7q-53 0 -90 7z" />
<glyph unicode="&#x13e;" horiz-adv-x="663" d="M354 1079q20 115 31.5 198t13.5 148v39q0 14 -2 37q23 4 54.5 6t54.5 2q20 0 46 -2t48 -6q4 -18 4 -37v-39q0 -23 -3 -54.5t-7 -66t-10 -71.5t-13 -70l-159 -864q-6 -35 -6 -55q0 -33 9 -52.5t23.5 -28.5t31.5 -11t34 -2q18 0 41.5 4t40.5 8q18 -53 18 -127 q0 -8 -1 -15.5t-1 -13.5q-31 -10 -75 -15t-87 -5q-53 0 -97 10t-75.5 36.5t-49 70.5t-17.5 110q0 39 8 82l16 84zM762 1505q12 2 38.5 3t63.5 1q25 0 51.5 -1t42.5 -3l-96 -413q-35 -6 -82 -7q-53 0 -90 7z" />
<glyph unicode="&#x13f;" horiz-adv-x="1003" d="M446 1473q25 4 52.5 6t56.5 2q27 0 51.5 -2t48.5 -6l-225 -1289h549q-4 -53 -10 -96t-25 -88h-756zM786 625q0 59 9.5 113.5t25.5 107.5q29 4 62.5 6.5t58.5 2.5q23 0 54.5 -2.5t57.5 -6.5q-4 -115 -39 -221q-29 -2 -61.5 -3t-54.5 -1q-25 0 -57.5 1t-55.5 3z" />
<glyph unicode="&#x140;" horiz-adv-x="679" d="M354 1079q20 115 31.5 198t13.5 148v39q0 14 -2 37q23 4 54.5 6t54.5 2q20 0 46 -2t48 -6q4 -18 4 -37v-39q0 -23 -3 -54.5t-7 -66t-10 -71.5t-13 -70l-159 -864q-6 -35 -6 -55q0 -33 9 -52.5t23.5 -28.5t31.5 -11t34 -2q18 0 41.5 4t40.5 8q18 -53 18 -127 q0 -8 -1 -15.5t-1 -13.5q-31 -10 -75 -15t-87 -5q-53 0 -97 10t-75.5 36.5t-49 70.5t-17.5 110q0 39 8 82l16 84zM588 629q0 59 9.5 113.5t25.5 107.5q29 4 62.5 6.5t58.5 2.5q23 0 54.5 -2.5t57.5 -6.5q-4 -115 -39 -221q-29 -2 -61.5 -3t-54.5 -1q-25 0 -57.5 1t-55.5 3z " />
<glyph unicode="&#x141;" horiz-adv-x="1001" d="M295 604l-191 -78q0 6 -1 13.5t-1 13.5q0 78 33 160l193 80l118 680q25 4 51.5 6t55.5 2t53.5 -2t48.5 -6l-110 -617l303 127q0 -10 1 -18.5t1 -18.5q0 -78 -29 -151l-307 -127l-86 -484h549q0 -53 -8 -96t-25 -88h-756z" />
<glyph unicode="&#x142;" horiz-adv-x="620" d="M293 676l-146 -78q-2 10 -2 20v21q0 33 5.5 68.5t17.5 68.5l80 43l80 43q29 180 56.5 326.5t27.5 236.5q0 25 -1 39.5t-3 36.5q23 4 55.5 6t54.5 2q20 0 46 -2t46 -6q6 -37 6 -76q0 -41 -8 -102t-20 -127l-47 -256l153 84q2 -10 2 -20v-21q0 -72 -24 -139l-83 -45 l-83 -45l-66 -357q-8 -39 -15 -82t-7 -71q0 -33 9 -52.5t23.5 -28.5t32 -11t33.5 -2t41 4t41 8q8 -29 12 -62.5t4 -93.5q-25 -6 -60.5 -13t-76.5 -7q-80 0 -130 15t-78.5 45t-40 71t-11.5 90q0 41 6 88t17 100z" />
<glyph unicode="&#x143;" horiz-adv-x="1370" d="M446 1473q23 4 50.5 5t50.5 1q51 0 92 -6l414 -1111l192 1111l40 4q19 2 40 2h49l66 -6l-258 -1473q-23 -4 -48.5 -5t-50.5 -1q-23 0 -46 1t-46 5l-416 1104l-190 -1104q-41 -6 -80 -6h-51l-66 6zM1065 1817q25 4 58.5 6t68.5 2q37 0 75.5 -2t61.5 -6l-297 -226 q-20 -4 -52 -5t-65 -1q-29 0 -56.5 2t-43.5 6z" />
<glyph unicode="&#x144;" horiz-adv-x="1177" d="M291 608q23 123 36 211t13 154q0 27 -1 42t-5 38q23 4 49.5 6t48.5 2q20 0 46 -2t46 -6q4 -16 6 -38t2 -57q0 -39 -5 -73.5t-11 -67.5q20 43 57 89t86.5 83t109.5 61.5t128 24.5q123 0 191.5 -65.5t68.5 -202.5q0 -31 -4 -69t-10 -72l-117 -666q-25 -4 -53.5 -6t-50.5 -2 q-23 0 -50.5 2t-48.5 6l111 631q6 33 9 63.5t3 53.5q0 82 -38 116.5t-101 34.5q-55 0 -108.5 -34t-100.5 -99.5t-85 -161.5t-60 -221l-68 -383q-25 -4 -53.5 -6t-50.5 -2q-23 0 -50.5 2t-48.5 6zM889 1477q33 4 65.5 6t67.5 2t65.5 -2t61.5 -6l-254 -260q-23 -4 -50.5 -6.5 t-58.5 -2.5q-23 0 -47 2t-49 7z" />
<glyph unicode="&#x145;" horiz-adv-x="1370" d="M446 1473q23 4 50.5 5t50.5 1q51 0 92 -6l414 -1111l192 1111l40 4q19 2 40 2h49l66 -6l-258 -1473q-23 -4 -48.5 -5t-50.5 -1q-23 0 -46 1t-46 5l-416 1104l-190 -1104q-41 -6 -80 -6h-51l-66 6zM614 -133q25 4 53.5 6t52.5 2q29 0 53.5 -2t53.5 -6l-172 -356 q-23 -4 -48.5 -6.5t-47.5 -2.5q-23 0 -45.5 2t-44.5 7z" />
<glyph unicode="&#x146;" horiz-adv-x="1177" d="M291 608q23 123 36 211t13 154q0 27 -1 42t-5 38q23 4 49.5 6t48.5 2q20 0 46 -2t46 -6q4 -16 6 -38t2 -57q0 -39 -5 -73.5t-11 -67.5q20 43 57 89t86.5 83t109.5 61.5t128 24.5q123 0 191.5 -65.5t68.5 -202.5q0 -31 -4 -69t-10 -72l-117 -666q-25 -4 -53.5 -6t-50.5 -2 q-23 0 -50.5 2t-48.5 6l111 631q6 33 9 63.5t3 53.5q0 82 -38 116.5t-101 34.5q-55 0 -108.5 -34t-100.5 -99.5t-85 -161.5t-60 -221l-68 -383q-25 -4 -53.5 -6t-50.5 -2q-23 0 -50.5 2t-48.5 6zM506 -133q27 4 54.5 6t51.5 2q29 0 53.5 -2t53.5 -6l-172 -356 q-23 -4 -48.5 -6.5t-48.5 -2.5t-45 2t-45 7z" />
<glyph unicode="&#x147;" horiz-adv-x="1370" d="M446 1473q23 4 50.5 5t50.5 1q51 0 92 -6l414 -1111l192 1111l40 4q19 2 40 2h49l66 -6l-258 -1473q-23 -4 -48.5 -5t-50.5 -1q-23 0 -46 1t-46 5l-416 1104l-190 -1104q-41 -6 -80 -6h-51l-66 6zM704 1821q23 4 47.5 6t51.5 2q23 0 52.5 -2t55.5 -6l80 -123l139 123 q27 4 60 6t57 2q29 0 56.5 -2t50.5 -6l-263 -226q-25 -4 -57.5 -6t-60.5 -2q-20 0 -51 2t-58 6z" />
<glyph unicode="&#x148;" horiz-adv-x="1177" d="M291 608q23 123 36 211t13 154q0 27 -1 42t-5 38q23 4 49.5 6t48.5 2q20 0 46 -2t46 -6q4 -16 6 -38t2 -57q0 -39 -5 -73.5t-11 -67.5q20 43 57 89t86.5 83t109.5 61.5t128 24.5q123 0 191.5 -65.5t68.5 -202.5q0 -31 -4 -69t-10 -72l-117 -666q-25 -4 -53.5 -6t-50.5 -2 q-23 0 -50.5 2t-48.5 6l111 631q6 33 9 63.5t3 53.5q0 82 -38 116.5t-101 34.5q-55 0 -108.5 -34t-100.5 -99.5t-85 -161.5t-60 -221l-68 -383q-25 -4 -53.5 -6t-50.5 -2q-23 0 -50.5 2t-48.5 6zM557 1475q41 10 93 10q25 0 56.5 -3t53.5 -7l90 -162l146 162q25 4 57.5 7 t58.5 3q49 0 97 -10l-250 -261q-27 -4 -64 -5t-65 -1q-23 0 -54.5 2t-60.5 7z" />
<glyph unicode="&#x149;" horiz-adv-x="1177" d="M291 608q23 123 36 211t13 154q0 27 -1 42t-5 38q23 4 49.5 6t48.5 2q20 0 46 -2t46 -6q4 -16 6 -38t2 -57q0 -39 -5 -73.5t-11 -67.5q20 43 57 89t86.5 83t109.5 61.5t128 24.5q123 0 191.5 -65.5t68.5 -202.5q0 -31 -4 -69t-10 -72l-117 -666q-25 -4 -53.5 -6t-50.5 -2 q-23 0 -50.5 2t-48.5 6l111 631q6 33 9 63.5t3 53.5q0 82 -38 116.5t-101 34.5q-55 0 -108.5 -34t-100.5 -99.5t-85 -161.5t-60 -221l-68 -383q-25 -4 -53.5 -6t-50.5 -2q-23 0 -50.5 2t-48.5 6zM396 1501q16 4 41.5 6t54.5 2t58.5 -2t45.5 -6l-172 -334q-25 -4 -44 -6 t-42 -2q-45 0 -84 8z" />
<glyph unicode="&#x14a;" horiz-adv-x="1372" d="M446 1473q23 4 50.5 5t50.5 1q51 0 92 -6l414 -1111l192 1111l40 4q19 2 40 2h49l66 -6l-141 -806l-140 -804q-16 -102 -55 -171t-95.5 -111t-129 -60.5t-154.5 -18.5q-57 0 -102 7.5t-84 19.5q4 47 12 93t31 87q23 -8 58.5 -15t76.5 -7t79 6t69.5 27.5t54 61.5t34.5 109 l25 148l-203 532l-201 533l-190 -1104q-41 -6 -80 -6h-51l-66 6z" />
<glyph unicode="&#x14b;" horiz-adv-x="1177" d="M180 0l52 272q28 143 51.5 277.5t39 246t15.5 177.5q0 27 -1 42t-3 38q23 4 49.5 5t48.5 1q20 0 45 -1t47 -5q4 -16 6 -38t2 -57t-5 -68.5t-11 -64.5l-2 -10q20 43 57 89t86.5 83t109.5 61.5t128 24.5q123 0 191.5 -65.5t68.5 -202.5q0 -31 -4 -68t-10 -73l-142 -805 q-63 -358 -393 -359q-49 0 -93 7.5t-79 19.5q0 33 11.5 78t27.5 78q23 -8 56.5 -13.5t62.5 -5.5q76 0 131 43t78 164l133 760q4 31 7 61.5l5 52.5q0 78 -42 115t-99 37q-49 0 -104.5 -34t-106.5 -102.5t-90 -172t-58 -242.5l-63 -346q-41 -6 -84 -6h-51z" />
<glyph unicode="&#x14c;" horiz-adv-x="1435" d="M715 -25q-123 0 -214 39t-151.5 110t-90.5 171t-30 221q0 188 49.5 365.5t144.5 313.5t234.5 219t317.5 83q123 0 215 -41t151.5 -112.5t89 -172t29.5 -219.5q0 -193 -50 -368.5t-145.5 -311t-233.5 -216.5t-316 -81zM737 156q121 0 214 70.5t158 184t98.5 256 t33.5 283.5q0 166 -68.5 264.5t-222.5 98.5q-123 0 -217 -69.5t-157.5 -182.5t-96.5 -255t-33 -288q0 -172 70.5 -267t220.5 -95zM727 1640q0 74 25 136h582v-17q0 -35 -6.5 -71.5t-20.5 -71.5h-580v24z" />
<glyph unicode="&#x14d;" horiz-adv-x="1140" d="M565 -25q-190 0 -286.5 105.5t-96.5 298.5q0 113 35 236.5t107.5 225t182 168t259.5 66.5q193 0 289 -106.5t96 -298.5q0 -115 -35 -238t-106.5 -224.5t-182 -167t-262.5 -65.5zM586 137q96 0 164.5 52.5t111.5 132t63.5 173t20.5 175.5q0 117 -52 178t-149 61 q-96 0 -163.5 -53t-110.5 -133t-62.5 -173t-19.5 -173q0 -117 50.5 -178.5t146.5 -61.5zM1130 1421q0 -41 -5 -78.5t-19 -80.5h-553q0 41 4 79.5t20 79.5h553z" />
<glyph unicode="&#x14e;" horiz-adv-x="1435" d="M715 -25q-123 0 -214 39t-151.5 110t-90.5 171t-30 221q0 188 49.5 365.5t144.5 313.5t234.5 219t317.5 83q123 0 215 -41t151.5 -112.5t89 -172t29.5 -219.5q0 -193 -50 -368.5t-145.5 -311t-233.5 -216.5t-316 -81zM737 156q121 0 214 70.5t158 184t98.5 256 t33.5 283.5q0 166 -68.5 264.5t-222.5 98.5q-123 0 -217 -69.5t-157.5 -182.5t-96.5 -255t-33 -288q0 -172 70.5 -267t220.5 -95zM717 1821q23 4 43 7t43 3t42 -3t42 -7q2 -23 7 -43.5t19.5 -36t40 -24.5t66.5 -9q39 0 66.5 7t46 21.5t31 35t22.5 49.5l45.5 7t44.5 3 q23 0 42.5 -3t39.5 -7q-18 -76 -57 -124t-86 -75t-100.5 -37t-102.5 -10q-53 0 -106.5 11t-95.5 39t-67.5 76t-25.5 120z" />
<glyph unicode="&#x14f;" horiz-adv-x="1140" d="M565 -25q-190 0 -286.5 105.5t-96.5 298.5q0 113 35 236.5t107.5 225t182 168t259.5 66.5q193 0 289 -106.5t96 -298.5q0 -115 -35 -238t-106.5 -224.5t-182 -167t-262.5 -65.5zM586 137q96 0 164.5 52.5t111.5 132t63.5 173t20.5 175.5q0 117 -52 178t-149 61 q-96 0 -163.5 -53t-110.5 -133t-62.5 -173t-19.5 -173q0 -117 50.5 -178.5t146.5 -61.5zM516 1479q20 6 44 8t47 2t39 -2t38 -8q0 -25 5.5 -49.5t20.5 -44t41 -33t66 -13.5q43 0 72 11.5t47.5 31t28.5 45t18 52.5l45.5 7t42.5 3q23 0 45.5 -2t42.5 -8q-18 -84 -56 -137.5 t-85 -84t-102.5 -42t-110.5 -11.5q-51 0 -102 11.5t-93 42t-68 82t-26 130.5v9z" />
<glyph unicode="&#x150;" horiz-adv-x="1435" d="M715 -25q-123 0 -214 39t-151.5 110t-90.5 171t-30 221q0 188 49.5 365.5t144.5 313.5t234.5 219t317.5 83q123 0 215 -41t151.5 -112.5t89 -172t29.5 -219.5q0 -193 -50 -368.5t-145.5 -311t-233.5 -216.5t-316 -81zM737 156q121 0 214 70.5t158 184t98.5 256 t33.5 283.5q0 166 -68.5 264.5t-222.5 98.5q-123 0 -217 -69.5t-157.5 -182.5t-96.5 -255t-33 -288q0 -172 70.5 -267t220.5 -95zM865 1831q31 4 64.5 6t68.5 2t66.5 -2t60.5 -6l-262 -242q-23 -4 -50.5 -6t-58.5 -2q-25 0 -49.5 2t-48.5 6zM1256 1831q31 4 64.5 6t66.5 2 q37 0 68.5 -2t60.5 -6l-262 -242q-23 -4 -50.5 -6t-60.5 -2q-23 0 -47 2t-49 6z" />
<glyph unicode="&#x151;" horiz-adv-x="1140" d="M565 -25q-190 0 -286.5 105.5t-96.5 298.5q0 113 35 236.5t107.5 225t182 168t259.5 66.5q193 0 289 -106.5t96 -298.5q0 -115 -35 -238t-106.5 -224.5t-182 -167t-262.5 -65.5zM586 137q96 0 164.5 52.5t111.5 132t63.5 173t20.5 175.5q0 117 -52 178t-149 61 q-96 0 -163.5 -53t-110.5 -133t-62.5 -173t-19.5 -173q0 -117 50.5 -178.5t146.5 -61.5zM673 1477q29 4 61 6t60 2q31 0 60.5 -2t60.5 -6l-229 -260q-23 -4 -50.5 -6.5t-56.5 -2.5q-23 0 -47 2t-49 7zM1046 1477q31 4 61.5 6t59.5 2q31 0 61.5 -2t59.5 -6l-230 -260 q-23 -4 -49 -6.5t-57 -2.5q-49 0 -96 9z" />
<glyph unicode="&#x152;" horiz-adv-x="1845" d="M1788 182l-4 -49q0 -33 -8.5 -67.5t-18.5 -65.5h-803q-51 -10 -109.5 -17.5t-121.5 -7.5q-129 0 -222 39t-153.5 111t-90.5 172t-30 221q0 188 47.5 364.5t141.5 313.5t233 219t322 82q68 0 132 -7t118 -17h778q0 -41 -7 -88.5t-26 -96.5h-567l-74 -420h455 q0 -43 -8.5 -90t-24.5 -94h-455l-88 -502h584zM1188 1290q-47 16 -100.5 24.5t-122.5 8.5q-123 0 -219.5 -66.5t-163 -174t-100 -244t-33.5 -277.5q0 -201 69.5 -308.5t233.5 -107.5q82 0 141 10.5t100 28.5z" />
<glyph unicode="&#x153;" horiz-adv-x="1751" d="M586 137q96 0 164.5 52.5t111.5 132t63.5 173t20.5 173.5q0 117 -52 179t-149 62q-96 0 -163.5 -53t-110.5 -133t-62.5 -174t-19.5 -174q0 -117 51.5 -177.5t145.5 -60.5zM1241 588q104 16 173 39.5t109 51.5t57 58.5t17 65.5q0 49 -33.5 80.5t-95.5 31.5 q-66 0 -121 -28.5t-98 -76.5t-73.5 -110.5t-47.5 -130.5zM1112 418q4 -129 68.5 -203t195.5 -74q82 0 157 19.5t132 42.5q20 -31 27.5 -74t7.5 -86q-31 -14 -75 -26.5t-92 -21.5t-97.5 -14.5t-89.5 -5.5q-84 0 -145.5 17.5t-105.5 48.5t-73 72t-45 90q-61 -92 -165.5 -160 t-256.5 -68q-180 0 -276.5 104.5t-96.5 299.5q0 113 35 235.5t106.5 225t180 169t256.5 66.5q137 0 218 -67.5t109 -165.5q72 98 180.5 165.5t250.5 67.5q63 0 115.5 -18.5t89 -51t56 -77.5t19.5 -97q0 -90 -44 -156.5t-122 -113.5t-183.5 -77.5t-229.5 -49.5z" />
<glyph unicode="&#x154;" horiz-adv-x="1177" d="M449 1475q78 12 149.5 17t140.5 5q92 0 180.5 -18.5t157 -61.5t109.5 -113.5t41 -177.5q0 -109 -35 -190.5t-87 -142t-114.5 -101.5t-116.5 -65l269 -627q-61 -6 -119 -6q-59 0 -111 6l-284 686l20 6q12 2 44 14.5t72 35t83 54t79 75.5t58.5 98.5t22.5 122.5 q0 123 -70 176t-193 53q-33 0 -58 -2t-58 -6l-232 -1313q-25 -2 -52.5 -4t-53.5 -2q-25 0 -52.5 1t-50.5 5zM910 1817q25 4 58.5 6t68.5 2q37 0 75.5 -2t61.5 -6l-297 -226q-20 -4 -52 -5t-65 -1q-29 0 -56.5 2t-43.5 6z" />
<glyph unicode="&#x155;" horiz-adv-x="747" d="M166 0l50.5 272.5l51 277.5t40 245.5t16.5 177.5q0 27 -1 42t-6 38q23 4 49.5 5t49.5 1q20 0 45.5 -1t46.5 -5q4 -16 6 -36t2 -54q0 -47 -6 -93q27 37 58.5 70t70.5 59.5t86 42t104 15.5q16 0 36 -2t32 -6q0 -41 -9 -93.5t-32 -89.5q-8 2 -25.5 4t-33.5 2 q-137 0 -222.5 -98t-121.5 -303l-84 -471q-43 -6 -84 -6h-52zM748 1477q33 4 65.5 6t67.5 2t65.5 -2t61.5 -6l-254 -260q-23 -4 -50.5 -6.5t-58.5 -2.5q-23 0 -47 2t-49 7z" />
<glyph unicode="&#x156;" horiz-adv-x="1177" d="M449 1475q78 12 149.5 17t140.5 5q92 0 180.5 -18.5t157 -61.5t109.5 -113.5t41 -177.5q0 -109 -35 -190.5t-87 -142t-114.5 -101.5t-116.5 -65l269 -627q-61 -6 -119 -6q-59 0 -111 6l-284 686l20 6q12 2 44 14.5t72 35t83 54t79 75.5t58.5 98.5t22.5 122.5 q0 123 -70 176t-193 53q-33 0 -58 -2t-58 -6l-232 -1313q-25 -2 -52.5 -4t-53.5 -2q-25 0 -52.5 1t-50.5 5zM553 -133q25 4 53.5 6t52.5 2q29 0 53.5 -2t53.5 -6l-172 -356q-23 -4 -48.5 -6.5t-47.5 -2.5q-23 0 -45.5 2t-44.5 7z" />
<glyph unicode="&#x157;" horiz-adv-x="747" d="M166 0l50.5 272.5l51 277.5t40 245.5t16.5 177.5q0 27 -1 42t-6 38q23 4 49.5 5t49.5 1q20 0 45.5 -1t46.5 -5q4 -16 6 -36t2 -54q0 -47 -6 -93q27 37 58.5 70t70.5 59.5t86 42t104 15.5q16 0 36 -2t32 -6q0 -41 -9 -93.5t-32 -89.5q-8 2 -25.5 4t-33.5 2 q-137 0 -222.5 -98t-121.5 -303l-84 -471q-43 -6 -84 -6h-52zM137 -133q27 4 54.5 6t51.5 2q29 0 53.5 -2t53.5 -6l-172 -356q-23 -4 -48.5 -6.5t-48.5 -2.5t-45 2t-45 7z" />
<glyph unicode="&#x158;" horiz-adv-x="1177" d="M449 1475q78 12 149.5 17t140.5 5q92 0 180.5 -18.5t157 -61.5t109.5 -113.5t41 -177.5q0 -109 -35 -190.5t-87 -142t-114.5 -101.5t-116.5 -65l269 -627q-61 -6 -119 -6q-59 0 -111 6l-284 686l20 6q12 2 44 14.5t72 35t83 54t79 75.5t58.5 98.5t22.5 122.5 q0 123 -70 176t-193 53q-33 0 -58 -2t-58 -6l-232 -1313q-25 -2 -52.5 -4t-53.5 -2q-25 0 -52.5 1t-50.5 5zM548 1821q23 4 47.5 6t51.5 2q23 0 52.5 -2t55.5 -6l80 -123l139 123q27 4 60 6t57 2q29 0 56.5 -2t50.5 -6l-263 -226q-25 -4 -57.5 -6t-60.5 -2q-20 0 -51 2 t-58 6z" />
<glyph unicode="&#x159;" horiz-adv-x="747" d="M166 0l50.5 272.5l51 277.5t40 245.5t16.5 177.5q0 27 -1 42t-6 38q23 4 49.5 5t49.5 1q20 0 45.5 -1t46.5 -5q4 -16 6 -36t2 -54q0 -47 -6 -93q27 37 58.5 70t70.5 59.5t86 42t104 15.5q16 0 36 -2t32 -6q0 -41 -9 -93.5t-32 -89.5q-8 2 -25.5 4t-33.5 2 q-137 0 -222.5 -98t-121.5 -303l-84 -471q-43 -6 -84 -6h-52zM387 1475q41 10 93 10q25 0 56.5 -3t53.5 -7l90 -162l146 162q25 4 57.5 7t58.5 3q49 0 97 -10l-250 -261q-27 -4 -64 -5t-65 -1q-23 0 -54.5 2t-60.5 7z" />
<glyph unicode="&#x15a;" horiz-adv-x="1089" d="M166 223q76 -27 149.5 -45t161.5 -18q174 0 267.5 76.5t93.5 205.5q0 84 -54.5 141.5t-165.5 116.5q-68 37 -123 75t-94 81t-60.5 96.5t-21.5 120.5q0 96 37 174t105.5 133.5t165 86t215.5 30.5q111 0 190.5 -16.5t151.5 -44.5q-8 -43 -23.5 -88t-42.5 -86 q-53 25 -119.5 43t-152.5 18q-66 0 -121 -12.5t-96 -37t-64.5 -64.5t-23.5 -95q0 -82 49 -136t151 -110q76 -41 136.5 -79.5t102.5 -84t64.5 -100.5t22.5 -129q0 -113 -42 -205t-120 -157.5t-188.5 -101.5t-249.5 -36q-113 0 -203 17.5t-166 46.5q17 90 68 184zM891 1817 q25 4 58.5 6t68.5 2q37 0 75.5 -2t61.5 -6l-297 -226q-20 -4 -52 -5t-65 -1q-29 0 -56.5 2t-43.5 6z" />
<glyph unicode="&#x15b;" horiz-adv-x="888" d="M438 494q-31 12 -65.5 30.5t-63 47t-48 72.5t-19.5 106q0 76 30.5 136t86 102t132 64.5t171.5 22.5q84 0 159.5 -18.5t118.5 -40.5q-16 -80 -59 -154q-35 16 -96.5 33.5t-131.5 17.5q-88 0 -146 -30.5t-58 -106.5q0 -47 27.5 -78.5t98.5 -60.5l46 -21l80 -38 q42 -20 76 -50t55.5 -72t21.5 -104q0 -98 -37 -168.5t-101.5 -117t-149.5 -69t-183 -22.5q-82 0 -161 14.5t-130 37.5q4 45 15.5 86t33.5 77q53 -23 125 -36t133 -13q51 0 96.5 9.5t78 29t52 52t19.5 81.5q0 63 -37 95t-104 59zM701 1477q33 4 65.5 6t67.5 2t65.5 -2 t61.5 -6l-254 -260q-23 -4 -50.5 -6.5t-58.5 -2.5q-23 0 -47 2t-49 7z" />
<glyph unicode="&#x15c;" horiz-adv-x="1089" d="M166 223q76 -27 149.5 -45t161.5 -18q174 0 267.5 76.5t93.5 205.5q0 84 -54.5 141.5t-165.5 116.5q-68 37 -123 75t-94 81t-60.5 96.5t-21.5 120.5q0 96 37 174t105.5 133.5t165 86t215.5 30.5q111 0 190.5 -16.5t151.5 -44.5q-8 -43 -23.5 -88t-42.5 -86 q-53 25 -119.5 43t-152.5 18q-66 0 -121 -12.5t-96 -37t-64.5 -64.5t-23.5 -95q0 -82 49 -136t151 -110q76 -41 136.5 -79.5t102.5 -84t64.5 -100.5t22.5 -129q0 -113 -42 -205t-120 -157.5t-188.5 -101.5t-249.5 -36q-113 0 -203 17.5t-166 46.5q17 90 68 184zM770 1821 q27 4 60.5 6t62.5 2q20 0 50 -2t56 -6l168 -226q-23 -4 -47 -6t-51 -2q-23 0 -50.5 2t-54.5 8l-92 123l-141 -125q-27 -4 -58.5 -6t-56.5 -2q-29 0 -56.5 2t-49.5 6z" />
<glyph unicode="&#x15d;" horiz-adv-x="888" d="M438 494q-31 12 -65.5 30.5t-63 47t-48 72.5t-19.5 106q0 76 30.5 136t86 102t132 64.5t171.5 22.5q84 0 159.5 -18.5t118.5 -40.5q-16 -80 -59 -154q-35 16 -96.5 33.5t-131.5 17.5q-88 0 -146 -30.5t-58 -106.5q0 -47 27.5 -78.5t98.5 -60.5l46 -21l80 -38 q42 -20 76 -50t55.5 -72t21.5 -104q0 -98 -37 -168.5t-101.5 -117t-149.5 -69t-183 -22.5q-82 0 -161 14.5t-130 37.5q4 45 15.5 86t33.5 77q53 -23 125 -36t133 -13q51 0 96.5 9.5t78 29t52 52t19.5 81.5q0 63 -37 95t-104 59zM589 1477q25 4 59 6t62 2q23 0 57.5 -2 t61.5 -8l152 -258q-18 -4 -42 -6.5t-51 -2.5q-25 0 -53.5 2t-52.5 7l-84 161l-143 -161q-25 -4 -56.5 -6.5t-56.5 -2.5q-29 0 -57.5 2t-49.5 7z" />
<glyph unicode="&#x15e;" horiz-adv-x="1089" d="M469 -25q-92 0 -182 14.5t-189 49.5q16 88 68 182q76 -27 149.5 -44t161.5 -17q174 0 268.5 75.5t94.5 204.5q0 78 -45 134.5t-144 105.5q-76 39 -138 79t-107.5 87t-70 102.5t-24.5 124.5q0 94 36 173t102.5 134.5t162 86t215.5 30.5q111 0 191 -17.5t151 -45.5 q-8 -41 -24.5 -87.5t-40.5 -86.5q-53 27 -121 45t-152 18q-129 0 -214 -49t-85 -162q0 -82 52.5 -135t154.5 -109q76 -41 136.5 -79.5t103.5 -85t65.5 -101.5t22.5 -127q0 -201 -124 -330t-343 -159l-59 -103q10 2 19 2h24q86 0 132 -45t46 -114q0 -61 -24.5 -103.5 t-65.5 -68t-93.5 -37t-107.5 -11.5q-63 0 -111.5 13.5t-70.5 25.5q6 29 17 59.5t30 55.5q29 -10 65.5 -19.5t69.5 -9.5q20 0 43 2t43.5 9.5t33.5 24t13 44.5q0 39 -31.5 55.5t-87.5 16.5q-29 0 -56.5 -4t-55.5 -10l-11 10z" />
<glyph unicode="&#x15f;" horiz-adv-x="888" d="M362 -25q-78 4 -150.5 17.5t-119.5 34.5q4 45 15.5 86t33.5 77q53 -23 125 -36t133 -13q51 0 96.5 9.5t78 29t52 52t19.5 81.5q0 63 -37 95t-104 59l-66 27q-31 12 -65.5 30.5t-63 47t-48 72.5t-19.5 106q0 76 30.5 136t86 102t132 64.5t171.5 22.5q84 0 159.5 -18.5 t118.5 -40.5q-16 -80 -59 -154q-35 16 -96.5 33.5t-131.5 17.5q-88 0 -146 -30.5t-58 -106.5q0 -47 27.5 -78.5t98.5 -60.5l46 -21l80 -38q42 -20 76 -50t55.5 -72t21.5 -104q0 -84 -27.5 -148.5t-76 -109.5t-115 -72.5t-143.5 -37.5l-58 -103q20 4 43 4q86 0 132 -45 t46 -114q0 -63 -24.5 -105.5t-65.5 -68t-93 -36t-107 -10.5q-63 0 -111.5 12.5t-71.5 26.5q4 27 16.5 58.5t28.5 54.5q31 -10 68 -19.5t67 -9.5q20 0 44 2t44.5 10.5t34 25t13.5 44.5q0 39 -32 54.5t-87 15.5q-29 0 -56.5 -4t-56.5 -10l-10 10z" />
<glyph unicode="&#x160;" horiz-adv-x="1089" d="M166 223q76 -27 149.5 -45t161.5 -18q174 0 267.5 76.5t93.5 205.5q0 84 -54.5 141.5t-165.5 116.5q-68 37 -123 75t-94 81t-60.5 96.5t-21.5 120.5q0 96 37 174t105.5 133.5t165 86t215.5 30.5q111 0 190.5 -16.5t151.5 -44.5q-8 -43 -23.5 -88t-42.5 -86 q-53 25 -119.5 43t-152.5 18q-66 0 -121 -12.5t-96 -37t-64.5 -64.5t-23.5 -95q0 -82 49 -136t151 -110q76 -41 136.5 -79.5t102.5 -84t64.5 -100.5t22.5 -129q0 -113 -42 -205t-120 -157.5t-188.5 -101.5t-249.5 -36q-113 0 -203 17.5t-166 46.5q17 90 68 184zM579 1821 q23 4 47.5 6t51.5 2q23 0 52.5 -2t55.5 -6l80 -123l139 123q27 4 60 6t57 2q29 0 56.5 -2t50.5 -6l-263 -226q-25 -4 -57.5 -6t-60.5 -2q-20 0 -51 2t-58 6z" />
<glyph unicode="&#x161;" horiz-adv-x="888" d="M438 494q-31 12 -65.5 30.5t-63 47t-48 72.5t-19.5 106q0 76 30.5 136t86 102t132 64.5t171.5 22.5q84 0 159.5 -18.5t118.5 -40.5q-16 -80 -59 -154q-35 16 -96.5 33.5t-131.5 17.5q-88 0 -146 -30.5t-58 -106.5q0 -47 27.5 -78.5t98.5 -60.5l46 -21l80 -38 q42 -20 76 -50t55.5 -72t21.5 -104q0 -98 -37 -168.5t-101.5 -117t-149.5 -69t-183 -22.5q-82 0 -161 14.5t-130 37.5q4 45 15.5 86t33.5 77q53 -23 125 -36t133 -13q51 0 96.5 9.5t78 29t52 52t19.5 81.5q0 63 -37 95t-104 59zM385 1475q41 10 93 10q25 0 56.5 -3t53.5 -7 l90 -162l146 162q25 4 57.5 7t58.5 3q49 0 97 -10l-250 -261q-27 -4 -64 -5t-65 -1q-23 0 -54.5 2t-60.5 7z" />
<glyph unicode="&#x162;" horiz-adv-x="1054" d="M641 1290h-365q0 45 8.5 90t24.5 93h940q0 -47 -8 -91.5t-24 -91.5h-365l-225 -1290q-53 -6 -109 -6q-27 0 -53.5 1t-48.5 5zM391 -133q25 4 53.5 6t52.5 2q29 0 53.5 -2t53.5 -6l-172 -356q-23 -4 -48.5 -6.5t-47.5 -2.5q-23 0 -45.5 2t-44.5 7z" />
<glyph unicode="&#x163;" horiz-adv-x="716" d="M350 889h-166q0 41 6.5 79t22.5 83h164q10 53 18 108t8 115v33q41 20 98.5 30.5t98.5 10.5q2 -18 3 -37t1 -39q0 -63 -16 -158l-13 -63h265q0 -45 -6.5 -83t-20.5 -79h-262l-80 -445q-10 -47 -18.5 -97t-8.5 -91q0 -61 32 -85t85 -24q35 0 63.5 5.5t57.5 13.5 q6 -20 10 -45t4 -53v-30q0 -15 -2 -32q-27 -8 -69.5 -15t-92.5 -7q-66 0 -120 9t-92.5 34.5t-60 69.5t-21.5 116q0 39 7 83l15 91zM324 -133q27 4 54.5 6t51.5 2q29 0 53.5 -2t53.5 -6l-172 -356q-23 -4 -48.5 -6.5t-48.5 -2.5t-45 2t-45 7z" />
<glyph unicode="&#x164;" horiz-adv-x="1054" d="M641 1290h-365q0 45 8.5 90t24.5 93h940q0 -47 -8 -91.5t-24 -91.5h-365l-225 -1290q-53 -6 -109 -6q-27 0 -53.5 1t-48.5 5zM522 1821q23 4 47.5 6t51.5 2q23 0 52.5 -2t55.5 -6l80 -123l139 123q27 4 60 6t57 2q29 0 56.5 -2t50.5 -6l-263 -226q-25 -4 -57.5 -6 t-60.5 -2q-20 0 -51 2t-58 6z" />
<glyph unicode="&#x165;" horiz-adv-x="716" d="M350 889h-166q0 41 6.5 79t22.5 83h164q10 53 18 108t8 115v33q41 20 98.5 30.5t98.5 10.5q2 -18 3 -37t1 -39q0 -63 -16 -158l-13 -63h265q0 -45 -6.5 -83t-20.5 -79h-262l-80 -445q-10 -47 -18.5 -97t-8.5 -91q0 -61 32 -85t85 -24q35 0 63.5 5.5t57.5 13.5 q6 -20 10 -45t4 -53v-30q0 -15 -2 -32q-27 -8 -69.5 -15t-92.5 -7q-66 0 -120 9t-92.5 34.5t-60 69.5t-21.5 116q0 39 7 83l15 91zM793 1575q12 2 38.5 3t63.5 1q25 0 51.5 -1t42.5 -3l-96 -413q-35 -6 -82 -7q-53 0 -90 7z" />
<glyph unicode="&#x166;" horiz-adv-x="1054" d="M535 678h-234q0 39 5 76t22 77h233l80 459h-365q0 45 8.5 90t24.5 93h940q0 -47 -8 -91.5t-24 -91.5h-365l-82 -459h252q0 -39 -5 -76.5t-22 -76.5h-252l-116 -678q-53 -6 -109 -6q-27 0 -53.5 1t-48.5 5z" />
<glyph unicode="&#x167;" horiz-adv-x="716" d="M283 514h-162q0 72 24 139h162l43 236h-166q0 41 6.5 79t22.5 83h164q10 53 18 108t8 115v33q41 20 98.5 30.5t98.5 10.5q2 -18 3 -37t1 -39q0 -63 -16 -158l-13 -63h265q0 -45 -6.5 -83t-20.5 -79h-262l-43 -236h264q0 -76 -24 -139h-265l-12 -70q-10 -47 -18.5 -97 t-8.5 -91q0 -61 32 -85t85 -24q35 0 63.5 5.5t57.5 13.5q6 -20 10 -45t4 -53v-30q0 -15 -2 -32q-27 -8 -69.5 -15t-92.5 -7q-66 0 -120 9t-92.5 34.5t-60 69.5t-21.5 116q0 39 7 83l15 91z" />
<glyph unicode="&#x168;" horiz-adv-x="1357" d="M434 1473q27 4 54.5 6t54.5 2t52.5 -2t49.5 -6l-147 -836q-25 -141 -25 -240q0 -125 52.5 -179t181.5 -54q88 0 150.5 29.5t105.5 89t71.5 148.5t48.5 206l146 836q29 4 54.5 6t53.5 2q25 0 52.5 -2t50.5 -6l-156 -887q-27 -147 -71 -262t-114.5 -192t-174 -117 t-248.5 -40q-211 0 -314.5 100.5t-103.5 311.5q0 47 6 100.5t17 112.5zM637 1737q39 41 93 71.5t120 30.5q43 0 78 -11t67.5 -25.5t66.5 -26t75 -11.5q35 0 62.5 11.5t68.5 46.5q16 -20 35.5 -53t23.5 -62q-41 -37 -95 -67.5t-120 -30.5q-43 0 -78 11t-67.5 24.5t-66.5 24.5 t-70 11q-39 0 -67 -12t-67 -43q-18 20 -36.5 51t-22.5 60z" />
<glyph unicode="&#x169;" horiz-adv-x="1163" d="M340 1051q23 4 52.5 6t51.5 2q23 0 49.5 -2t49.5 -6l-111 -631q-12 -66 -12 -117q0 -82 38 -116.5t101 -34.5q55 0 108.5 33.5t100.5 99t85 162t60 221.5l68 383q25 4 53.5 6t50.5 2q23 0 50.5 -2t48.5 -6l-109 -609q-23 -123 -36 -211t-13 -153q0 -27 1 -42.5t3 -37.5 q-23 -4 -48.5 -6t-47.5 -2q-20 0 -46 2t-46 6q-8 27 -8 94q0 39 5 74t11 67q-20 -43 -57 -89t-86.5 -82.5t-109.5 -61.5t-128 -25q-123 0 -191.5 65.5t-68.5 203.5q0 31 4 68.5t10 72.5zM441 1352q39 41 93 71.5t120 30.5q43 0 77.5 -11t67.5 -24.5t67 -25t74 -11.5 q35 0 64 10.5t70 45.5q16 -20 34.5 -52t22.5 -63q-39 -37 -94.5 -67.5t-120.5 -30.5q-43 0 -78 11t-67.5 25.5t-66.5 25.5t-71 11q-39 0 -66.5 -13t-66.5 -44q-18 20 -36.5 51t-22.5 60z" />
<glyph unicode="&#x16a;" horiz-adv-x="1357" d="M434 1473q27 4 54.5 6t54.5 2t52.5 -2t49.5 -6l-147 -836q-25 -141 -25 -240q0 -125 52.5 -179t181.5 -54q88 0 150.5 29.5t105.5 89t71.5 148.5t48.5 206l146 836q29 4 54.5 6t53.5 2q25 0 52.5 -2t50.5 -6l-156 -887q-27 -147 -71 -262t-114.5 -192t-174 -117 t-248.5 -40q-211 0 -314.5 100.5t-103.5 311.5q0 47 6 100.5t17 112.5zM671 1640q0 74 25 136h582v-17q0 -35 -6.5 -71.5t-20.5 -71.5h-580v24z" />
<glyph unicode="&#x16b;" horiz-adv-x="1163" d="M340 1051q23 4 52.5 6t51.5 2q23 0 49.5 -2t49.5 -6l-111 -631q-12 -66 -12 -117q0 -82 38 -116.5t101 -34.5q55 0 108.5 33.5t100.5 99t85 162t60 221.5l68 383q25 4 53.5 6t50.5 2q23 0 50.5 -2t48.5 -6l-109 -609q-23 -123 -36 -211t-13 -153q0 -27 1 -42.5t3 -37.5 q-23 -4 -48.5 -6t-47.5 -2q-20 0 -46 2t-46 6q-8 27 -8 94q0 39 5 74t11 67q-20 -43 -57 -89t-86.5 -82.5t-109.5 -61.5t-128 -25q-123 0 -191.5 65.5t-68.5 203.5q0 31 4 68.5t10 72.5zM1100 1421q0 -41 -5 -78.5t-19 -80.5h-553q0 41 4 79.5t20 79.5h553z" />
<glyph unicode="&#x16c;" horiz-adv-x="1357" d="M434 1473q27 4 54.5 6t54.5 2t52.5 -2t49.5 -6l-147 -836q-25 -141 -25 -240q0 -125 52.5 -179t181.5 -54q88 0 150.5 29.5t105.5 89t71.5 148.5t48.5 206l146 836q29 4 54.5 6t53.5 2q25 0 52.5 -2t50.5 -6l-156 -887q-27 -147 -71 -262t-114.5 -192t-174 -117 t-248.5 -40q-211 0 -314.5 100.5t-103.5 311.5q0 47 6 100.5t17 112.5zM672 1821q23 4 43 7t43 3t42 -3t42 -7q2 -23 7 -43.5t19.5 -36t40 -24.5t66.5 -9q39 0 66.5 7t46 21.5t31 35t22.5 49.5l45.5 7t44.5 3q23 0 42.5 -3t39.5 -7q-18 -76 -57 -124t-86 -75t-100.5 -37 t-102.5 -10q-53 0 -106.5 11t-95.5 39t-67.5 76t-25.5 120z" />
<glyph unicode="&#x16d;" horiz-adv-x="1163" d="M340 1051q23 4 52.5 6t51.5 2q23 0 49.5 -2t49.5 -6l-111 -631q-12 -66 -12 -117q0 -82 38 -116.5t101 -34.5q55 0 108.5 33.5t100.5 99t85 162t60 221.5l68 383q25 4 53.5 6t50.5 2q23 0 50.5 -2t48.5 -6l-109 -609q-23 -123 -36 -211t-13 -153q0 -27 1 -42.5t3 -37.5 q-23 -4 -48.5 -6t-47.5 -2q-20 0 -46 2t-46 6q-8 27 -8 94q0 39 5 74t11 67q-20 -43 -57 -89t-86.5 -82.5t-109.5 -61.5t-128 -25q-123 0 -191.5 65.5t-68.5 203.5q0 31 4 68.5t10 72.5zM510 1479q20 6 44 8t47 2t39 -2t38 -8q0 -25 5.5 -49.5t20.5 -44t41 -33t66 -13.5 q43 0 72 11.5t47.5 31t28.5 45t18 52.5l45.5 7t42.5 3q23 0 45.5 -2t42.5 -8q-18 -84 -56 -137.5t-85 -84t-102.5 -42t-110.5 -11.5q-51 0 -102 11.5t-93 42t-68 82t-26 130.5v9z" />
<glyph unicode="&#x16e;" horiz-adv-x="1357" d="M434 1473q27 4 54.5 6t54.5 2t52.5 -2t49.5 -6l-147 -836q-25 -141 -25 -240q0 -125 52.5 -179t181.5 -54q88 0 150.5 29.5t105.5 89t71.5 148.5t48.5 206l146 836q29 4 54.5 6t53.5 2q25 0 52.5 -2t50.5 -6l-156 -887q-27 -147 -71 -262t-114.5 -192t-174 -117 t-248.5 -40q-211 0 -314.5 100.5t-103.5 311.5q0 47 6 100.5t17 112.5zM979 1606q55 0 86 43t31 102q0 49 -19.5 84t-73.5 35q-59 0 -89.5 -43t-30.5 -105q0 -51 21.5 -83.5t74.5 -32.5zM756 1708q0 57 19.5 106.5t53 85t80.5 56t103 20.5q104 0 159.5 -61.5t55.5 -151.5 q0 -57 -19.5 -105t-53.5 -84t-81 -56.5t-102 -20.5q-106 0 -160.5 61.5t-54.5 149.5z" />
<glyph unicode="&#x16f;" horiz-adv-x="1163" d="M340 1051q23 4 52.5 6t51.5 2q23 0 49.5 -2t49.5 -6l-111 -631q-12 -66 -12 -117q0 -82 38 -116.5t101 -34.5q55 0 108.5 33.5t100.5 99t85 162t60 221.5l68 383q25 4 53.5 6t50.5 2q23 0 50.5 -2t48.5 -6l-109 -609q-23 -123 -36 -211t-13 -153q0 -27 1 -42.5t3 -37.5 q-23 -4 -48.5 -6t-47.5 -2q-20 0 -46 2t-46 6q-8 27 -8 94q0 39 5 74t11 67q-20 -43 -57 -89t-86.5 -82.5t-109.5 -61.5t-128 -25q-123 0 -191.5 65.5t-68.5 203.5q0 31 4 68.5t10 72.5zM610 1395q0 49 16.5 93t47 77.5t73.5 54t96 20.5q92 0 145.5 -54t53.5 -148 q0 -49 -17.5 -93.5t-49 -76t-74.5 -50t-94 -18.5q-92 0 -144.5 53.5t-52.5 141.5zM817 1305q47 0 74.5 34.5t27.5 94.5q0 47 -19.5 74.5t-64.5 27.5q-51 0 -77.5 -39t-26.5 -90q0 -47 20.5 -74.5t65.5 -27.5z" />
<glyph unicode="&#x170;" horiz-adv-x="1357" d="M434 1473q27 4 54.5 6t54.5 2t52.5 -2t49.5 -6l-147 -836q-25 -141 -25 -240q0 -125 52.5 -179t181.5 -54q88 0 150.5 29.5t105.5 89t71.5 148.5t48.5 206l146 836q29 4 54.5 6t53.5 2q25 0 52.5 -2t50.5 -6l-156 -887q-27 -147 -71 -262t-114.5 -192t-174 -117 t-248.5 -40q-211 0 -314.5 100.5t-103.5 311.5q0 47 6 100.5t17 112.5zM854 1831q31 4 64.5 6t68.5 2t66.5 -2t60.5 -6l-262 -242q-23 -4 -50.5 -6t-58.5 -2q-25 0 -49.5 2t-48.5 6zM1245 1831q31 4 64.5 6t66.5 2q37 0 68.5 -2t60.5 -6l-262 -242q-23 -4 -50.5 -6t-60.5 -2 q-23 0 -47 2t-49 6z" />
<glyph unicode="&#x171;" horiz-adv-x="1163" d="M340 1051q23 4 52.5 6t51.5 2q23 0 49.5 -2t49.5 -6l-111 -631q-12 -66 -12 -117q0 -82 38 -116.5t101 -34.5q55 0 108.5 33.5t100.5 99t85 162t60 221.5l68 383q25 4 53.5 6t50.5 2q23 0 50.5 -2t48.5 -6l-109 -609q-23 -123 -36 -211t-13 -153q0 -27 1 -42.5t3 -37.5 q-23 -4 -48.5 -6t-47.5 -2q-20 0 -46 2t-46 6q-8 27 -8 94q0 39 5 74t11 67q-20 -43 -57 -89t-86.5 -82.5t-109.5 -61.5t-128 -25q-123 0 -191.5 65.5t-68.5 203.5q0 31 4 68.5t10 72.5zM659 1477q29 4 61 6t60 2q31 0 60.5 -2t60.5 -6l-229 -260q-23 -4 -50.5 -6.5 t-56.5 -2.5q-23 0 -47 2t-49 7zM1032 1477q31 4 61.5 6t59.5 2q31 0 61.5 -2t59.5 -6l-230 -260q-23 -4 -49 -6.5t-57 -2.5q-49 0 -96 9z" />
<glyph unicode="&#x172;" horiz-adv-x="1357" d="M291 664l71 403l70 406q27 4 55.5 5t55.5 1q51 0 100 -6l-154 -881q-18 -111 -18 -195q0 -127 53.5 -181t180.5 -54q98 0 161.5 33.5t106.5 101.5t69.5 168t51.5 235l135 773q45 6 84 6h55l72 -6l-144 -822l-26 -131q-20 -102 -52 -182t-77 -143.5t-103.5 -110.5 t-132.5 -86q-37 -20 -79 -52t-77.5 -70t-58 -78t-22.5 -77q0 -80 96 -79q18 0 44 3t60 13q8 -20 13.5 -45t5.5 -51q0 -20 -2 -29q-35 -12 -85 -20.5t-100 -8.5q-47 0 -88 9.5t-71.5 29t-49 52t-18.5 79.5q0 43 16.5 85t44 80t62.5 73t74 63q-104 8 -182 33t-129.5 72 t-77 121.5t-25.5 185.5q0 92 23 211z" />
<glyph unicode="&#x173;" horiz-adv-x="1163" d="M340 1051q23 4 52.5 6t51.5 2q23 0 49.5 -2t49.5 -6l-111 -631q-12 -66 -12 -117q0 -82 38 -116.5t101 -34.5q55 0 108.5 33.5t100.5 99t85 162t60 221.5l68 383q25 4 53.5 6t50.5 2q23 0 50.5 -2t48.5 -6l-109 -609q-23 -123 -36 -211t-13 -153q0 -29 1 -46.5t3 -33.5 l-62 -54q-36 -32 -69 -69t-55.5 -78t-22.5 -78q0 -80 97 -79q16 0 41.5 3t60.5 13q20 -41 20 -94q0 -20 -2 -31q-35 -12 -85 -19.5t-99 -7.5q-47 0 -88 9.5t-71.5 29t-49 52t-18.5 79.5q0 96 63.5 175t151.5 149q-8 27 -8 94q0 39 5 74t11 67q-20 -43 -57 -89t-86.5 -82.5 t-109.5 -61.5t-128 -25q-123 0 -191.5 65.5t-68.5 203.5q0 31 4 68.5t10 72.5z" />
<glyph unicode="&#x174;" horiz-adv-x="1826" d="M326 1473q29 4 63.5 5t69.5 1q45 0 86 -6l26 -1201l484 1201q27 4 58.5 5t57.5 1q23 0 51.5 -1t51.5 -5l80 -1213l438 1213q49 6 106 6q27 0 55.5 -1t51.5 -5l-582 -1473q-25 -4 -58.5 -5t-61.5 -1q-29 0 -62 1t-59 5l-80 1128l-469 -1128q-27 -4 -62.5 -5t-64.5 -1 q-25 0 -56.5 1t-54.5 5zM1098 1821q27 4 60.5 6t62.5 2q20 0 50 -2t56 -6l168 -226q-23 -4 -47 -6t-51 -2q-23 0 -50.5 2t-54.5 8l-92 123l-141 -125q-27 -4 -58.5 -6t-56.5 -2q-29 0 -56.5 2t-49.5 6z" />
<glyph unicode="&#x175;" horiz-adv-x="1564" d="M221 1051q29 4 55.5 6t55.5 2q59 0 106 -8l80 -815l328 815q23 4 49.5 6t48.5 2q27 0 51.5 -2t48.5 -6l101 -818l256 621q25 59 34 105.5t9 72.5v19q25 4 50.5 6t53.5 2q66 0 113 -8v-9q0 -45 -17.5 -95t-54.5 -126l-381 -821q-27 -4 -56.5 -6t-57.5 -2q-25 0 -51.5 2 t-49.5 6l-102 756l-311 -756q-27 -4 -56.5 -6t-56.5 -2q-25 0 -52.5 2t-49.5 6zM880 1477q25 4 59 6t62 2q23 0 57.5 -2t61.5 -8l152 -258q-18 -4 -42 -6.5t-51 -2.5q-25 0 -53.5 2t-52.5 7l-84 161l-143 -161q-25 -4 -56.5 -6.5t-56.5 -2.5q-29 0 -57.5 2t-49.5 7z" />
<glyph unicode="&#x176;" horiz-adv-x="1124" d="M553 537l-281 936q29 4 67 5t73 1q43 0 84 -6l196 -723l422 723q55 6 117 6q27 0 56.5 -1t51.5 -5l-579 -943l-92 -530q-55 -6 -109 -6q-57 0 -102 6zM764 1821q27 4 60.5 6t62.5 2q20 0 50 -2t56 -6l168 -226q-23 -4 -47 -6t-51 -2q-23 0 -50.5 2t-54.5 8l-92 123 l-141 -125q-27 -4 -58.5 -6t-56.5 -2q-29 0 -56.5 2t-49.5 6z" />
<glyph unicode="&#x177;" horiz-adv-x="1024" d="M532 102l117 258l93 215l76 181l63 155q12 33 18 64t6 47q0 10 -1 16t-1 13q39 6 86 6h129q2 -8 2 -17v-16q0 -49 -20.5 -106.5t-44.5 -114.5l-198 -425l-236 -501q-57 -121 -110.5 -194.5t-106 -114.5t-105.5 -55.5t-115 -14.5q-72 0 -139 21q2 45 12.5 86t32.5 71 q18 -6 45 -11t49 -5q31 0 64 9t68.5 44t76.5 102.5t90 184.5q-16 -2 -34 -2h-37h-31q-16 0 -29 2l-68 524l-69 527q29 4 52.5 6t51.5 2q29 0 55.5 -2t53.5 -6zM624 1477q25 4 59 6t62 2q23 0 57.5 -2t61.5 -8l152 -258q-18 -4 -42 -6.5t-51 -2.5q-25 0 -53.5 2t-52.5 7 l-84 161l-143 -161q-25 -4 -56.5 -6.5t-56.5 -2.5q-29 0 -57.5 2t-49.5 7z" />
<glyph unicode="&#x178;" horiz-adv-x="1124" d="M553 537l-281 936q29 4 67 5t73 1q43 0 84 -6l196 -723l422 723q55 6 117 6q27 0 56.5 -1t51.5 -5l-579 -943l-92 -530q-55 -6 -109 -6q-57 0 -102 6zM500 1593q0 106 35 207q29 4 56.5 6t51.5 2q27 0 55.5 -2t51.5 -6q0 -106 -35 -207q-29 -4 -56.5 -6t-54.5 -2 q-25 0 -52 2t-52 6zM938 1593q0 102 35 207q27 4 55.5 6t53.5 2q27 0 54 -2t52 -6q-4 -104 -35 -207q-29 -4 -56.5 -6t-53.5 -2q-25 0 -53.5 2t-51.5 6z" />
<glyph unicode="&#x179;" horiz-adv-x="1085" d="M66 16l860 1272h-596q0 96 32 185h898l8 -21l-858 -1270h622q0 -51 -8 -96t-25 -86h-923zM871 1817q25 4 58.5 6t68.5 2q37 0 75.5 -2t61.5 -6l-297 -226q-20 -4 -52 -5t-65 -1q-29 0 -56.5 2t-43.5 6z" />
<glyph unicode="&#x17a;" horiz-adv-x="919" d="M63 29l658 860h-455q0 41 5 80t24 82h743l6 -27l-659 -864h498q0 -41 -6.5 -83t-22.5 -77h-784zM737 1477q33 4 65.5 6t67.5 2t65.5 -2t61.5 -6l-254 -260q-23 -4 -50.5 -6.5t-58.5 -2.5q-23 0 -47 2t-49 7z" />
<glyph unicode="&#x17b;" horiz-adv-x="1085" d="M66 16l860 1272h-596q0 96 32 185h898l8 -21l-858 -1270h622q0 -51 -8 -96t-25 -86h-923zM705 1583q0 59 9 112.5t25 108.5q29 4 63 6t58 2q23 0 54.5 -2t58.5 -6q-4 -115 -39 -221q-29 -2 -61.5 -3t-55.5 -1q-25 0 -57 1t-55 3z" />
<glyph unicode="&#x17c;" horiz-adv-x="919" d="M63 29l658 860h-455q0 41 5 80t24 82h743l6 -27l-659 -864h498q0 -41 -6.5 -83t-22.5 -77h-784zM565 1243q0 59 9.5 113.5t25.5 107.5q29 4 62.5 6.5t58.5 2.5q23 0 54.5 -2.5t57.5 -6.5q-4 -115 -39 -221q-29 -2 -61.5 -3t-54.5 -1q-25 0 -57.5 1t-55.5 3z" />
<glyph unicode="&#x17d;" horiz-adv-x="1085" d="M66 16l860 1272h-596q0 96 32 185h898l8 -21l-858 -1270h622q0 -51 -8 -96t-25 -86h-923zM544 1821q23 4 47.5 6t51.5 2q23 0 52.5 -2t55.5 -6l80 -123l139 123q27 4 60 6t57 2q29 0 56.5 -2t50.5 -6l-263 -226q-25 -4 -57.5 -6t-60.5 -2q-20 0 -51 2t-58 6z" />
<glyph unicode="&#x17e;" horiz-adv-x="919" d="M63 29l658 860h-455q0 41 5 80t24 82h743l6 -27l-659 -864h498q0 -41 -6.5 -83t-22.5 -77h-784zM411 1471q41 10 93 10q25 0 56.5 -3t53.5 -7l90 -162l146 162q25 4 57.5 7t58.5 3q49 0 97 -10l-250 -261q-27 -4 -64 -5t-65 -1q-23 0 -54.5 2t-60.5 7z" />
<glyph unicode="&#x17f;" horiz-adv-x="708" d="M422 1116q35 207 136 306.5t284 99.5q51 0 91 -7.5t73 -17.5q-12 -53 -25.5 -89t-34.5 -75q-23 8 -47.5 14.5t-56.5 6.5q-45 0 -80 -11.5t-62.5 -39t-47 -75.5t-31.5 -122l-193 -1090q-29 -143 -64.5 -241.5t-86 -159.5t-122 -88t-169.5 -27q-92 0 -158 27q8 47 20.5 85 t30.5 75q23 -8 48.5 -13.5t52.5 -5.5q45 0 81.5 11.5t65.5 42t51.5 87t38.5 146.5z" />
<glyph unicode="&#x192;" horiz-adv-x="1228" d="M629 793h-185q0 39 5.5 76.5t19.5 80.5h178l35 191q33 178 127 255t262 77q61 0 118.5 -13.5t86.5 -25.5q-6 -51 -17.5 -88t-31.5 -72q-25 10 -66 19.5t-82 9.5q-57 0 -94 -13.5t-61.5 -51.5t-41 -106.5t-32.5 -181.5h252q0 -39 -4 -75.5t-21 -81.5h-252l-114 -641 q-18 -109 -49 -189t-79 -134t-116 -81t-162 -27q-59 0 -105 8.5t-75 18.5q4 49 16.5 85t28.5 75q18 -6 47 -11.5t74 -5.5q43 0 77.5 10.5t61.5 36t46.5 70.5t31.5 115z" />
<glyph unicode="&#x218;" horiz-adv-x="1089" d="M166 223q76 -27 149.5 -45t161.5 -18q174 0 267.5 76.5t93.5 205.5q0 84 -54.5 141.5t-165.5 116.5q-68 37 -123 75t-94 81t-60.5 96.5t-21.5 120.5q0 96 37 174t105.5 133.5t165 86t215.5 30.5q111 0 190.5 -16.5t151.5 -44.5q-8 -43 -23.5 -88t-42.5 -86 q-53 25 -119.5 43t-152.5 18q-66 0 -121 -12.5t-96 -37t-64.5 -64.5t-23.5 -95q0 -82 49 -136t151 -110q76 -41 136.5 -79.5t102.5 -84t64.5 -100.5t22.5 -129q0 -113 -42 -205t-120 -157.5t-188.5 -101.5t-249.5 -36q-113 0 -203 17.5t-166 46.5q17 90 68 184zM440 -133 q25 4 53.5 6t52.5 2q29 0 53.5 -2t53.5 -6l-172 -356q-23 -4 -48.5 -6.5t-47.5 -2.5q-23 0 -45.5 2t-44.5 7z" />
<glyph unicode="&#x219;" horiz-adv-x="888" d="M438 494q-31 12 -65.5 30.5t-63 47t-48 72.5t-19.5 106q0 76 30.5 136t86 102t132 64.5t171.5 22.5q84 0 159.5 -18.5t118.5 -40.5q-16 -80 -59 -154q-35 16 -96.5 33.5t-131.5 17.5q-88 0 -146 -30.5t-58 -106.5q0 -47 27.5 -78.5t98.5 -60.5l46 -21l80 -38 q42 -20 76 -50t55.5 -72t21.5 -104q0 -98 -37 -168.5t-101.5 -117t-149.5 -69t-183 -22.5q-82 0 -161 14.5t-130 37.5q4 45 15.5 86t33.5 77q53 -23 125 -36t133 -13q51 0 96.5 9.5t78 29t52 52t19.5 81.5q0 63 -37 95t-104 59zM332 -133q27 4 54.5 6t51.5 2q29 0 53.5 -2 t53.5 -6l-172 -356q-23 -4 -48.5 -6.5t-48.5 -2.5t-45 2t-45 7z" />
<glyph unicode="&#x21a;" horiz-adv-x="1054" d="M641 1290h-365q0 45 8.5 90t24.5 93h940q0 -47 -8 -91.5t-24 -91.5h-365l-225 -1290q-53 -6 -109 -6q-27 0 -53.5 1t-48.5 5zM397 -133q25 4 53.5 6t52.5 2q29 0 53.5 -2t53.5 -6l-172 -356q-23 -4 -48.5 -6.5t-47.5 -2.5q-23 0 -45.5 2t-44.5 7z" />
<glyph unicode="&#x21b;" horiz-adv-x="716" d="M350 889h-166q0 41 6.5 79t22.5 83h164q10 53 18 108t8 115v33q41 20 98.5 30.5t98.5 10.5q2 -18 3 -37t1 -39q0 -63 -16 -158l-13 -63h265q0 -45 -6.5 -83t-20.5 -79h-262l-80 -445q-10 -47 -18.5 -97t-8.5 -91q0 -61 32 -85t85 -24q35 0 63.5 5.5t57.5 13.5 q6 -20 10 -45t4 -53v-30q0 -15 -2 -32q-27 -8 -69.5 -15t-92.5 -7q-66 0 -120 9t-92.5 34.5t-60 69.5t-21.5 116q0 39 7 83l15 91zM336 -133q27 4 54.5 6t51.5 2q29 0 53.5 -2t53.5 -6l-172 -356q-23 -4 -48.5 -6.5t-48.5 -2.5t-45 2t-45 7z" />
<glyph unicode="&#x237;" horiz-adv-x="589" d="M375 889h-129q0 35 6 77t22 85h326l-209 -1192q-63 -358 -391 -359q-49 0 -93 7.5t-79 19.5q0 31 11 78t28 78q23 -8 56.5 -13.5t62.5 -5.5q76 0 132 45t77 162z" />
<glyph unicode="&#x2bc;" horiz-adv-x="595" d="M498 1501q16 4 41.5 6t54.5 2t58.5 -2t45.5 -6l-172 -334q-25 -4 -44 -6t-42 -2q-45 0 -84 8z" />
<glyph unicode="&#x2c6;" horiz-adv-x="1021" d="M657 1477q25 4 59 6t62 2q23 0 57.5 -2t61.5 -8l152 -258q-18 -4 -42 -6.5t-51 -2.5q-25 0 -53.5 2t-52.5 7l-84 161l-143 -161q-25 -4 -56.5 -6.5t-56.5 -2.5q-29 0 -57.5 2t-49.5 7z" />
<glyph unicode="&#x2c7;" horiz-adv-x="1019" d="M444 1475q41 10 93 10q25 0 56.5 -3t53.5 -7l90 -162l146 162q25 4 57.5 7t58.5 3q49 0 97 -10l-250 -261q-27 -4 -64 -5t-65 -1q-23 0 -54.5 2t-60.5 7z" />
<glyph unicode="&#x2c9;" horiz-adv-x="1024" d="M987 1421q0 -41 -5 -78.5t-19 -80.5h-553q0 41 4 79.5t20 79.5h553z" />
<glyph unicode="&#x2d8;" horiz-adv-x="1024" d="M444 1479q20 6 44 8t47 2t39 -2t38 -8q0 -25 5.5 -49.5t20.5 -44t41 -33t66 -13.5q43 0 72 11.5t47.5 31t28.5 45t18 52.5l45.5 7t42.5 3q23 0 45.5 -2t42.5 -8q-18 -84 -56 -137.5t-85 -84t-102.5 -42t-110.5 -11.5q-51 0 -102 11.5t-93 42t-68 82t-26 130.5v9z" />
<glyph unicode="&#x2d9;" horiz-adv-x="1024" d="M559 1243q0 59 9.5 113.5t25.5 107.5q29 4 62.5 6.5t58.5 2.5q23 0 54.5 -2.5t57.5 -6.5q-4 -115 -39 -221q-29 -2 -61.5 -3t-54.5 -1q-25 0 -57.5 1t-55.5 3z" />
<glyph unicode="&#x2da;" horiz-adv-x="1028" d="M510 1395q0 49 16.5 93t47 77.5t73.5 54t96 20.5q92 0 145.5 -54t53.5 -148q0 -49 -17.5 -93.5t-49 -76t-74.5 -50t-94 -18.5q-92 0 -144.5 53.5t-52.5 141.5zM717 1305q47 0 74.5 34.5t27.5 94.5q0 47 -19.5 74.5t-64.5 27.5q-51 0 -77.5 -39t-26.5 -90 q0 -47 20.5 -74.5t65.5 -27.5z" />
<glyph unicode="&#x2db;" horiz-adv-x="1024" d="M719 0q-29 -20 -66 -52t-69.5 -70t-56 -79t-23.5 -80q0 -80 98 -79q16 0 42 3t61 13q10 -25 15 -58.5t1 -66.5q-35 -12 -84 -19.5t-100 -7.5q-45 0 -86 9.5t-73 29t-50.5 52t-18.5 79.5t20.5 92.5t52.5 87.5t74 78.5t85 67.5h178z" />
<glyph unicode="&#x2dc;" horiz-adv-x="1024" d="M375 1352q39 41 93 71.5t120 30.5q43 0 77.5 -11t67.5 -24.5t67 -25t74 -11.5q35 0 64 10.5t70 45.5q16 -20 34.5 -52t22.5 -63q-39 -37 -94.5 -67.5t-120.5 -30.5q-43 0 -78 11t-67.5 25.5t-66.5 25.5t-71 11q-39 0 -66.5 -13t-66.5 -44q-18 20 -36.5 51t-22.5 60z" />
<glyph unicode="&#x2dd;" horiz-adv-x="1024" d="M571 1477q29 4 61 6t60 2q31 0 60.5 -2t60.5 -6l-229 -260q-23 -4 -50.5 -6.5t-56.5 -2.5q-23 0 -47 2t-49 7zM944 1477q31 4 61.5 6t59.5 2q31 0 61.5 -2t59.5 -6l-230 -260q-23 -4 -49 -6.5t-57 -2.5q-49 0 -96 9z" />
<glyph unicode="&#x3a9;" horiz-adv-x="1445" d="M377 182q-51 90 -88 217t-37 269q0 172 45 323.5t132 263t215 177t292 65.5q123 0 217 -40t158.5 -112.5t98.5 -174t34 -226.5q0 -211 -84 -406.5t-221 -355.5h219q-2 -49 -9.5 -94t-19.5 -88h-520l-8 29q70 53 145.5 148t138 216t102.5 258t40 275q0 186 -82 286.5 t-238 100.5q-113 0 -196.5 -53.5t-139 -144.5t-83 -214t-27.5 -260q0 -98 15.5 -189.5t40 -171t56 -144t64.5 -107.5l-12 -29h-523q0 47 7.5 92t19.5 90h248z" />
<glyph unicode="&#x3c0;" horiz-adv-x="1445" d="M522 885h-14q-66 0 -126 -22.5t-101 -55.5q-20 27 -38 59.5t-24 65.5q59 59 148.5 89t189.5 30h956q-2 -41 -9 -82t-19 -84h-246l-90 -537q-4 -25 -7 -49.5t-3 -40.5q0 -63 24.5 -87t77.5 -24q31 0 59.5 5.5t53.5 13.5q6 -29 11 -57.5t5 -59.5v-20q0 -10 -2 -21 q-39 -12 -91 -19t-95 -7q-246 0 -246 233q0 23 3 52.5t7 56.5l92 561h-319l-148 -885q-23 -4 -50 -6t-50 -2t-50.5 2t-45.5 6z" />
<glyph unicode="&#x1e80;" horiz-adv-x="1826" d="M326 1473q29 4 63.5 5t69.5 1q45 0 86 -6l26 -1201l484 1201q27 4 58.5 5t57.5 1q23 0 51.5 -1t51.5 -5l80 -1213l438 1213q49 6 106 6q27 0 55.5 -1t51.5 -5l-582 -1473q-25 -4 -58.5 -5t-61.5 -1q-29 0 -62 1t-59 5l-80 1128l-469 -1128q-27 -4 -62.5 -5t-64.5 -1 q-25 0 -56.5 1t-54.5 5zM906 1825q25 4 64.5 6t78.5 2q35 0 67.5 -2t55.5 -6l186 -232q-16 -4 -44.5 -7t-57.5 -3q-33 0 -59.5 2t-45.5 6z" />
<glyph unicode="&#x1e81;" horiz-adv-x="1562" d="M221 1051q29 4 55.5 6t55.5 2q59 0 106 -8l80 -815l328 815q23 4 49.5 6t48.5 2q27 0 51.5 -2t48.5 -6l101 -818l256 621q25 59 34 105.5t9 72.5v19q25 4 50.5 6t53.5 2q66 0 113 -8v-9q0 -45 -17.5 -95t-54.5 -126l-381 -821q-27 -4 -56.5 -6t-57.5 -2q-25 0 -51.5 2 t-49.5 6l-102 756l-311 -756q-27 -4 -56.5 -6t-56.5 -2q-25 0 -52.5 2t-49.5 6zM702 1477q31 4 61.5 6t65.5 2t68.5 -2t64.5 -6l189 -260q-47 -8 -99 -9q-31 0 -57.5 2t-48.5 7z" />
<glyph unicode="&#x1e82;" horiz-adv-x="1826" d="M326 1473q29 4 63.5 5t69.5 1q45 0 86 -6l26 -1201l484 1201q27 4 58.5 5t57.5 1q23 0 51.5 -1t51.5 -5l80 -1213l438 1213q49 6 106 6q27 0 55.5 -1t51.5 -5l-582 -1473q-25 -4 -58.5 -5t-61.5 -1q-29 0 -62 1t-59 5l-80 1128l-469 -1128q-27 -4 -62.5 -5t-64.5 -1 q-25 0 -56.5 1t-54.5 5zM1223 1817q25 4 58.5 6t68.5 2q37 0 75.5 -2t61.5 -6l-297 -226q-20 -4 -52 -5t-65 -1q-29 0 -56.5 2t-43.5 6z" />
<glyph unicode="&#x1e83;" horiz-adv-x="1564" d="M221 1051q29 4 55.5 6t55.5 2q59 0 106 -8l80 -815l328 815q23 4 49.5 6t48.5 2q27 0 51.5 -2t48.5 -6l101 -818l256 621q25 59 34 105.5t9 72.5v19q25 4 50.5 6t53.5 2q66 0 113 -8v-9q0 -45 -17.5 -95t-54.5 -126l-381 -821q-27 -4 -56.5 -6t-57.5 -2q-25 0 -51.5 2 t-49.5 6l-102 756l-311 -756q-27 -4 -56.5 -6t-56.5 -2q-25 0 -52.5 2t-49.5 6zM979 1477q33 4 65.5 6t67.5 2t65.5 -2t61.5 -6l-254 -260q-23 -4 -50.5 -6.5t-58.5 -2.5q-23 0 -47 2t-49 7z" />
<glyph unicode="&#x1e84;" horiz-adv-x="1826" d="M326 1473q29 4 63.5 5t69.5 1q45 0 86 -6l26 -1201l484 1201q27 4 58.5 5t57.5 1q23 0 51.5 -1t51.5 -5l80 -1213l438 1213q49 6 106 6q27 0 55.5 -1t51.5 -5l-582 -1473q-25 -4 -58.5 -5t-61.5 -1q-29 0 -62 1t-59 5l-80 1128l-469 -1128q-27 -4 -62.5 -5t-64.5 -1 q-25 0 -56.5 1t-54.5 5zM852 1593q0 106 35 207q29 4 56.5 6t51.5 2q27 0 55.5 -2t51.5 -6q0 -106 -35 -207q-29 -4 -56.5 -6t-54.5 -2q-25 0 -52 2t-52 6zM1290 1593q0 102 35 207q27 4 55.5 6t53.5 2q27 0 54 -2t52 -6q-4 -104 -35 -207q-29 -4 -56.5 -6t-53.5 -2 q-25 0 -53.5 2t-51.5 6z" />
<glyph unicode="&#x1e85;" horiz-adv-x="1564" d="M221 1051q29 4 55.5 6t55.5 2q59 0 106 -8l80 -815l328 815q23 4 49.5 6t48.5 2q27 0 51.5 -2t48.5 -6l101 -818l256 621q25 59 34 105.5t9 72.5v19q25 4 50.5 6t53.5 2q66 0 113 -8v-9q0 -45 -17.5 -95t-54.5 -126l-381 -821q-27 -4 -56.5 -6t-57.5 -2q-25 0 -51.5 2 t-49.5 6l-102 756l-311 -756q-27 -4 -56.5 -6t-56.5 -2q-25 0 -52.5 2t-49.5 6zM643 1237q2 53 10.5 103.5t26.5 101.5q27 4 54.5 6t50.5 2t51 -2t53 -6q-2 -53 -10 -103.5t-27 -101.5q-53 -6 -104 -6q-23 0 -51.5 1t-53.5 5zM1061 1237q2 53 9 103.5t28 101.5q25 4 52.5 6 t51.5 2q23 0 51.5 -2t53.5 -6q-4 -53 -12.5 -102.5t-24.5 -102.5q-53 -6 -104 -6q-23 0 -51.5 1t-53.5 5z" />
<glyph unicode="&#x1ef2;" horiz-adv-x="1124" d="M553 537l-281 936q29 4 67 5t73 1q43 0 84 -6l196 -723l422 723q55 6 117 6q27 0 56.5 -1t51.5 -5l-579 -943l-92 -530q-55 -6 -109 -6q-57 0 -102 6zM516 1825q25 4 64.5 6t78.5 2q35 0 67.5 -2t55.5 -6l186 -232q-16 -4 -44.5 -7t-57.5 -3q-33 0 -59.5 2t-45.5 6z" />
<glyph unicode="&#x1ef3;" horiz-adv-x="1024" d="M532 102l117 258l93 215l76 181l63 155q12 33 18 64t6 47q0 10 -1 16t-1 13q39 6 86 6h129q2 -8 2 -17v-16q0 -49 -20.5 -106.5t-44.5 -114.5l-198 -425l-236 -501q-57 -121 -110.5 -194.5t-106 -114.5t-105.5 -55.5t-115 -14.5q-72 0 -139 21q2 45 12.5 86t32.5 71 q18 -6 45 -11t49 -5q31 0 64 9t68.5 44t76.5 102.5t90 184.5q-16 -2 -34 -2h-37h-31q-16 0 -29 2l-68 524l-69 527q29 4 52.5 6t51.5 2q29 0 55.5 -2t53.5 -6zM395 1477q31 4 61.5 6t65.5 2t68.5 -2t64.5 -6l189 -260q-47 -8 -99 -9q-31 0 -57.5 2t-48.5 7z" />
<glyph unicode="&#x2000;" horiz-adv-x="987" />
<glyph unicode="&#x2001;" horiz-adv-x="1976" />
<glyph unicode="&#x2002;" horiz-adv-x="987" />
<glyph unicode="&#x2003;" horiz-adv-x="1976" />
<glyph unicode="&#x2004;" horiz-adv-x="657" />
<glyph unicode="&#x2005;" horiz-adv-x="493" />
<glyph unicode="&#x2006;" horiz-adv-x="327" />
<glyph unicode="&#x2007;" horiz-adv-x="327" />
<glyph unicode="&#x2008;" horiz-adv-x="245" />
<glyph unicode="&#x2009;" horiz-adv-x="395" />
<glyph unicode="&#x200a;" horiz-adv-x="108" />
<glyph unicode="&#x2010;" horiz-adv-x="712" d="M748 684q0 -43 -9.5 -94t-23.5 -94h-516q4 96 32 188h517z" />
<glyph unicode="&#x2011;" horiz-adv-x="712" d="M748 684q0 -43 -9.5 -94t-23.5 -94h-516q4 96 32 188h517z" />
<glyph unicode="&#x2012;" horiz-adv-x="712" d="M748 684q0 -43 -9.5 -94t-23.5 -94h-516q4 96 32 188h517z" />
<glyph unicode="&#x2013;" horiz-adv-x="1024" d="M1141 668q0 -94 -33 -187h-1022q0 53 7 96.5t24 90.5h1024z" />
<glyph unicode="&#x2014;" horiz-adv-x="2048" d="M2159 668q0 -94 -33 -187h-2046q0 96 31 187h2048z" />
<glyph unicode="&#x2018;" horiz-adv-x="483" d="M289 1470q25 4 51.5 6.5t50.5 2.5q51 0 101 -6l122 -459q-41 -8 -94 -8q-25 0 -50.5 2t-51.5 6z" />
<glyph unicode="&#x2019;" horiz-adv-x="481" d="M459 1470q47 8 100 9q27 0 53.5 -2t49.5 -7l-203 -456q-29 -6 -54.5 -7t-48.5 -1q-27 0 -50 1t-46 7z" />
<glyph unicode="&#x201a;" horiz-adv-x="483" d="M217 223q27 6 51.5 8t48.5 2q27 0 53.5 -2t49.5 -8l-201 -452q-27 -4 -52.5 -6.5t-47.5 -2.5q-55 0 -96 9z" />
<glyph unicode="&#x201c;" horiz-adv-x="868" d="M674 1470q25 4 51.5 6.5t50.5 2.5q51 0 101 -6l122 -459q-41 -8 -94 -8q-25 0 -50.5 2t-51.5 6zM289 1470q25 4 51.5 6.5t50.5 2.5q51 0 101 -6l122 -459q-41 -8 -94 -8q-25 0 -50.5 2t-51.5 6z" />
<glyph unicode="&#x201d;" horiz-adv-x="866" d="M844 1470q47 8 100 9q27 0 53.5 -2t49.5 -7l-203 -456q-29 -6 -54.5 -7t-48.5 -1q-27 0 -50 1t-46 7zM459 1470q47 8 100 9q27 0 53.5 -2t49.5 -7l-203 -456q-29 -6 -54.5 -7t-48.5 -1q-27 0 -50 1t-46 7z" />
<glyph unicode="&#x201e;" horiz-adv-x="868" d="M602 223q27 6 51.5 8t48.5 2q27 0 53.5 -2t49.5 -8l-201 -452q-27 -4 -52.5 -6.5t-47.5 -2.5q-55 0 -96 9zM217 223q27 6 51.5 8t48.5 2q27 0 53.5 -2t49.5 -8l-201 -452q-27 -4 -52.5 -6.5t-47.5 -2.5q-55 0 -96 9z" />
<glyph unicode="&#x2020;" horiz-adv-x="1005" d="M537 756h-295q0 88 30 180h295l95 537q23 4 48 6t50 2q27 0 51.5 -2t46.5 -6l-94 -537h295q0 -90 -33 -180h-293l-194 -1106q-41 -8 -99 -8q-59 0 -98 8z" />
<glyph unicode="&#x2021;" horiz-adv-x="1005" d="M430 150h-295q0 45 8.5 91t24.5 91h295l86 502h-295q2 92 33 182h295l80 457q23 4 48 6t50 2q27 0 51.5 -2t46.5 -6l-80 -457h293q4 -45 -5 -91t-26 -91h-295l-86 -502h293q0 -96 -30 -182h-295l-88 -500q-41 -8 -99 -8q-59 0 -98 8z" />
<glyph unicode="&#x2022;" horiz-adv-x="833" d="M270 713q0 53 20.5 101t56.5 84t84 56.5t104 20.5q53 0 101 -20.5t84 -56.5t56.5 -84t20.5 -101q0 -55 -20.5 -103.5t-56.5 -84.5t-84 -56t-101 -20q-55 0 -103.5 20t-84.5 56t-56.5 84.5t-20.5 103.5z" />
<glyph unicode="&#x2026;" horiz-adv-x="1488" d="M629 0q0 57 11 113.5t28 113.5q29 4 57.5 6.5t57.5 2.5t57.5 -2.5t54.5 -6.5q0 -59 -10 -113.5t-27 -113.5q-33 -4 -60.5 -6t-55.5 -2q-29 0 -56.5 2t-56.5 6zM1133 0q0 57 11 113.5t28 113.5q29 4 57.5 6.5t57.5 2.5t57.5 -2.5t54.5 -6.5q0 -59 -10 -113.5t-27 -113.5 q-33 -4 -60.5 -6t-55.5 -2q-29 0 -56.5 2t-56.5 6zM125 0q0 57 11 113.5t28 113.5q29 4 57.5 6.5t57.5 2.5t57.5 -2.5t54.5 -6.5q0 -59 -10 -113.5t-27 -113.5q-33 -4 -60.5 -6t-55.5 -2q-29 0 -56.5 2t-56.5 6z" />
<glyph unicode="&#x202f;" horiz-adv-x="395" />
<glyph unicode="&#x2030;" horiz-adv-x="2832" d="M1561 1450q25 4 55.5 6t57.5 2t55.5 -2t50.5 -6l-1134 -1448q-29 -4 -53.5 -6t-49.5 -2q-27 0 -58.5 2t-56.5 6zM1556 125q61 0 104.5 35.5t71 91t41 120t13.5 121.5q0 203 -142 203q-61 0 -103 -37t-69.5 -92t-40 -120.5t-12.5 -123.5q0 -198 137 -198zM1538 -23 q-160 0 -234.5 96.5t-74.5 243.5q0 96 26.5 190.5t80.5 170t136 122t193 46.5q80 0 139 -26t97 -71t56.5 -108.5t18.5 -137.5q0 -102 -28.5 -196t-84 -168t-137.5 -118t-188 -44zM2406 125q61 0 104.5 35.5t71 91t41 120t13.5 121.5q0 203 -142 203q-61 0 -103 -37 t-69.5 -92t-40 -120.5t-12.5 -123.5q0 -198 137 -198zM2388 -23q-160 0 -234.5 96.5t-74.5 243.5q0 96 26.5 190.5t80.5 170t136 122t193 46.5q80 0 139 -26t97 -71t56.5 -108.5t18.5 -137.5q0 -102 -28.5 -196t-84 -168t-137.5 -118t-188 -44zM561 752q61 0 104.5 35.5 t71 91t41 120t13.5 121.5q0 203 -142 203q-61 0 -103 -37t-69.5 -92t-40 -120.5t-12.5 -123.5q0 -198 137 -198zM543 604q-160 0 -234.5 96.5t-74.5 243.5q0 96 26.5 190.5t80.5 170t136 122t193 46.5q80 0 139 -26t97 -71t56.5 -108.5t18.5 -137.5q0 -102 -28.5 -196 t-84 -168t-137.5 -118t-188 -44z" />
<glyph unicode="&#x2039;" horiz-adv-x="712" d="M176 555l428 444q25 4 55.5 6.5t57.5 2.5q29 0 61.5 -2t61.5 -7l-432 -456l264 -451q-29 -4 -57.5 -6t-57.5 -2q-27 0 -52.5 2t-49.5 6z" />
<glyph unicode="&#x203a;" horiz-adv-x="755" d="M530 559l-268 440q29 4 57.5 6.5t57.5 2.5q27 0 52.5 -2t49.5 -7l279 -467l-430 -440q-25 -4 -54.5 -6t-58.5 -2t-60.5 2t-60.5 6z" />
<glyph unicode="&#x2044;" horiz-adv-x="450" d="M682 1450q25 4 55.5 6t57.5 2t55.5 -2t50.5 -6l-1134 -1448q-29 -4 -53.5 -6t-49.5 -2q-27 0 -58.5 2t-56.5 6z" />
<glyph unicode="&#x205f;" horiz-adv-x="493" />
<glyph unicode="&#x2070;" d="M565 752q61 0 104.5 35.5t71 91t41 120t13.5 121.5q0 203 -142 203q-61 0 -103 -37t-69.5 -92t-40 -120.5t-12.5 -123.5q0 -198 137 -198zM547 604q-160 0 -234.5 96.5t-74.5 243.5q0 96 26.5 190.5t80.5 170t136 122t193 46.5q80 0 139 -26t97 -71t56.5 -108.5 t18.5 -137.5q0 -102 -28.5 -196t-84 -168t-137.5 -118t-188 -44z" />
<glyph unicode="&#x2074;" d="M215 813l436 664q41 -6 79 -20.5t65 -33.5l-332 -499h201l30 168q18 4 36 5t40 1q41 0 76 -6l-29 -168h94q0 -31 -5 -69t-17 -69h-94l-29 -161q-16 -2 -32.5 -3t-37.5 -1q-23 0 -41 1t-41 5l27 159h-416z" />
<glyph unicode="&#x2075;" d="M375 1026l92 420h469q0 -74 -25 -141h-327l-39 -160q20 4 45.5 8t54.5 4q51 0 96 -14.5t79 -42t53.5 -70.5t19.5 -100q0 -90 -32 -151.5t-86 -101.5t-123.5 -57.5t-143.5 -17.5q-84 0 -154.5 15.5t-109.5 35.5q10 37 22.5 70t40.5 70q41 -18 89 -31.5t106 -13.5 q43 0 81 7t66.5 25.5t46 49t17.5 77.5q0 53 -35 89t-115 36q-43 0 -81 -7t-85 -24z" />
<glyph unicode="&#x2076;" d="M453 1079q43 37 104 67t133 30q98 0 160.5 -61.5t62.5 -166.5q0 -78 -30.5 -141.5t-80.5 -108.5t-119 -70.5t-146 -25.5q-145 0 -214 81t-69 212q0 123 45 225.5t123 178t184.5 122.5t233.5 60l9 -42q5 -24 5 -48q0 -25 -6 -45q-55 -4 -111.5 -20.5t-110 -48.5t-98 -81 t-75.5 -117zM555 739q74 0 125 51.5t51 133.5q0 66 -32.5 93t-86.5 27q-33 0 -64.5 -13t-57 -35.5t-42 -56.5t-16.5 -73q0 -127 123 -127z" />
<glyph unicode="&#x2077;" d="M760 1305h-367q0 37 7.5 72.5t17.5 70.5h598l8 -18l-502 -824q-47 10 -84 26.5t-71 39.5z" />
<glyph unicode="&#x2078;" d="M768 1065q25 -14 49.5 -31.5t44 -41t32.5 -53.5t13 -67q0 -66 -32.5 -115.5t-85 -83.5t-119 -51.5t-133.5 -17.5q-59 0 -111.5 12.5t-91.5 37t-62.5 62.5t-23.5 91q0 45 18.5 84t48 70.5t67.5 58.5t79 45q-45 29 -72 70t-27 96q0 59 27 105t70 77t99 46.5t118 15.5 q117 0 187.5 -52.5t70.5 -140.5q0 -66 -50 -124t-116 -93zM582 997q-25 -10 -52.5 -23t-52 -32.5t-40 -46.5t-15.5 -61q0 -41 35 -70t102 -29q27 0 56.5 7.5t54 21.5t41 37.5t16.5 58.5q0 27 -13.5 48.5t-35 38t-46.5 29.5t-50 21zM641 1124q45 16 87 50t42 90 q0 35 -27.5 59.5t-80.5 24.5q-51 0 -94.5 -25t-43.5 -84q0 -45 40 -73t77 -42z" />
<glyph unicode="&#x2079;" d="M342 602q-6 23 -10 45.5t-4 44.5q0 25 6 49q55 4 112.5 19.5t110.5 46.5t97 78t75 114q-47 -41 -102.5 -65.5t-126.5 -24.5q-102 0 -166 64.5t-64 173.5q0 76 30 137.5t79 105.5t114.5 67.5t139.5 23.5q154 0 225.5 -84t71.5 -219q0 -121 -44 -222.5t-123 -176 t-186.5 -121t-234.5 -56.5zM571 1038q33 0 65 12.5t56.5 36t41 55.5t16.5 70q0 63 -33 99.5t-99 36.5q-70 0 -121 -49.5t-51 -131.5q0 -129 125 -129z" />
<glyph unicode="&#x2080;" d="M483 127q61 0 104.5 35.5t71 91t41 120t13.5 121.5q0 203 -142 203q-61 0 -103 -37t-69.5 -92t-40 -120.5t-12.5 -123.5q0 -198 137 -198zM465 -21q-160 0 -234.5 96.5t-74.5 243.5q0 96 26.5 190.5t80.5 170t136 122t193 46.5q80 0 139 -26t97 -71t56.5 -108.5 t18.5 -137.5q0 -102 -28.5 -196t-84 -168t-137.5 -118t-188 -44z" />
<glyph unicode="&#x2081;" d="M463 147l82 467l-193 -78q-41 55 -47 133l397 162h54l-119 -684h188q0 -37 -5 -72.5t-21 -72.5h-547q0 37 5 72.5t23 72.5h183z" />
<glyph unicode="&#x2082;" d="M133 26l326 305q63 59 112 115.5t49 128.5q0 111 -116 111q-47 0 -98.5 -14.5t-92.5 -32.5q-12 29 -23.5 62.5t-13.5 70.5q59 27 127 44t144 17q121 0 190.5 -61.5t69.5 -165.5q0 -55 -17.5 -102.5t-46 -88.5t-69.5 -79l-86 -82l-115 -105h303q0 -72 -27 -147h-612z" />
<glyph unicode="&#x2083;" d="M383 409l236 273h-295q0 35 5 69.5t18 71.5h510l10 -31l-248 -295q96 -12 140 -71.5t44 -130.5q0 -76 -29.5 -135.5t-79.5 -99.5t-118 -61.5t-141 -21.5q-82 0 -146.5 13.5t-109.5 33.5q12 68 59 131q51 -16 97 -27.5t96 -11.5q37 0 71.5 8.5t62 27t44 49t16.5 73.5 q0 59 -38 89t-101 30q-16 0 -39 -2t-45 -6z" />
<glyph unicode="&#x2084;" d="M133 188l436 664q41 -6 79 -20.5t65 -33.5l-332 -499h201l30 168q18 4 36 5t40 1q41 0 76 -6l-29 -168h94q0 -31 -5 -69t-17 -69h-94l-29 -161q-16 -2 -32.5 -3t-37.5 -1q-23 0 -41 1t-41 5l27 159h-416z" />
<glyph unicode="&#x2085;" d="M273 401l92 420h469q0 -74 -25 -141h-327l-39 -160q20 4 45.5 8t54.5 4q51 0 96 -14.5t79 -42t53.5 -70.5t19.5 -100q0 -90 -32 -151.5t-86 -101.5t-123.5 -57.5t-143.5 -17.5q-84 0 -154.5 15.5t-109.5 35.5q10 37 22.5 70t40.5 70q41 -18 89 -31.5t106 -13.5q43 0 81 7 t66.5 25.5t46 49t17.5 77.5q0 53 -35 89t-115 36q-43 0 -81 -7t-85 -24z" />
<glyph unicode="&#x2086;" d="M398 454q43 37 104 67t133 30q98 0 160.5 -61.5t62.5 -166.5q0 -78 -30.5 -141.5t-80.5 -108.5t-119 -70.5t-146 -25.5q-145 0 -214 81t-69 212q0 123 45 225.5t123 178t184.5 122.5t233.5 60l9 -42q5 -24 5 -48q0 -25 -6 -45q-55 -4 -111.5 -20.5t-110 -48.5t-98 -81 t-75.5 -117zM500 114q74 0 125 51.5t51 133.5q0 66 -32.5 93t-86.5 27q-33 0 -64.5 -13t-57 -35.5t-42 -56.5t-16.5 -73q0 -127 123 -127z" />
<glyph unicode="&#x2087;" d="M639 680h-367q0 37 7.5 72.5t17.5 70.5h598l8 -18l-502 -824q-47 10 -84 26.5t-71 39.5z" />
<glyph unicode="&#x2088;" d="M698 440q25 -14 49.5 -31.5t44 -41t32.5 -53.5t13 -67q0 -66 -32.5 -115.5t-85 -83.5t-119 -51.5t-133.5 -17.5q-59 0 -111.5 12.5t-91.5 37t-62.5 62.5t-23.5 91q0 45 18.5 84t48 70.5t67.5 58.5t79 45q-45 29 -72 70t-27 96q0 59 27 105t70 77t99 46.5t118 15.5 q117 0 187.5 -52.5t70.5 -140.5q0 -66 -50 -124t-116 -93zM512 372q-25 -10 -52.5 -23t-52 -32.5t-40 -46.5t-15.5 -61q0 -41 35 -70t102 -29q27 0 56.5 7.5t54 21.5t41 37.5t16.5 58.5q0 27 -13.5 48.5t-35 38t-46.5 29.5t-50 21zM571 499q45 16 87 50t42 90 q0 35 -27.5 59.5t-80.5 24.5q-51 0 -94.5 -25t-43.5 -84q0 -45 40 -73t77 -42z" />
<glyph unicode="&#x2089;" d="M285 -23q-6 23 -10 45.5t-4 44.5q0 25 6 49q55 4 112.5 19.5t110.5 46.5t97 78t75 114q-47 -41 -102.5 -65.5t-126.5 -24.5q-102 0 -166 64.5t-64 173.5q0 76 30 137.5t79 105.5t114.5 67.5t139.5 23.5q154 0 225.5 -84t71.5 -219q0 -121 -44 -222.5t-123 -176 t-186.5 -121t-234.5 -56.5zM514 413q33 0 65 12.5t56.5 36t41 55.5t16.5 70q0 63 -33 99.5t-99 36.5q-70 0 -121 -49.5t-51 -131.5q0 -129 125 -129z" />
<glyph unicode="&#x20ac;" horiz-adv-x="1228" d="M319 625q6 98 25 190h-135q0 33 5 70t19 71h150q39 113 102.5 207t150.5 163t198.5 106.5t248.5 37.5q104 0 183.5 -16t126.5 -39q-10 -49 -23.5 -86t-40.5 -84q-59 23 -116.5 33t-135.5 10q-92 0 -166.5 -24.5t-132 -68.5t-100.5 -104.5t-70 -134.5h535q2 -10 2 -17v-15 q0 -33 -7.5 -59.5t-17.5 -49.5h-555q-10 -47 -14 -94l-8 -96h544q0 -33 -6 -71t-20 -71h-514q14 -160 94 -241.5t244 -81.5q78 0 144.5 14t131.5 43q39 -74 45 -172q-41 -18 -88 -31.5t-95 -21.5t-93 -12.5t-82 -4.5q-260 0 -389 135.5t-140 372.5h-169q0 35 5 71t21 71h143 z" />
<glyph unicode="&#x2113;" horiz-adv-x="937" d="M500 604q100 115 155.5 248t55.5 256q0 98 -27 136t-70 38q-57 0 -85.5 -76t-28.5 -245v-357zM324 905q0 150 19 252.5t56 164.5t93.5 89t130.5 27q117 0 184 -78t67 -246q0 -176 -86 -349t-288 -359q0 -74 9 -124.5t27.5 -80t45 -42t59.5 -12.5q66 0 122 43t97 95 l101 -99q-57 -86 -145.5 -144t-199.5 -58q-131 0 -205.5 74.5t-80.5 234.5q-27 -16 -50 -33l-49 -35l-32 64l-33 61l80 58l78 59v438z" />
<glyph unicode="&#x2122;" horiz-adv-x="1691" d="M475 1298h-231q-6 37 -6 72t6 78h618q4 -20 6 -37.5t2 -38.5q0 -18 -2 -36.5t-6 -37.5h-229v-669q-23 -4 -41.5 -6t-40.5 -2q-18 0 -37.5 2t-38.5 6v669zM995 1448q25 2 45.5 4t40.5 2q18 0 40 -2l46 -4l203 -449l201 449q23 2 42 4t40 2q20 0 42 -2l44 -4l41 -819 q-25 -4 -42.5 -6t-37.5 -2q-16 0 -35.5 1t-42.5 7l-31 522l-176 -367q-16 -4 -28.5 -5t-28.5 -1q-20 0 -60 6l-161 361l-27 -516q-41 -8 -76 -8q-39 0 -80 8z" />
<glyph unicode="&#x2126;" horiz-adv-x="1488" d="M377 182q-51 90 -88 217t-37 269q0 172 45 323.5t132 263t215 177t292 65.5q123 0 217 -40t158.5 -112.5t98.5 -174t34 -226.5q0 -211 -84 -406.5t-221 -355.5h219q-2 -49 -9.5 -94t-19.5 -88h-520l-8 29q70 53 145.5 148t138 216t102.5 258t40 275q0 186 -82 286.5 t-238 100.5q-113 0 -196.5 -53.5t-139 -144.5t-83 -214t-27.5 -260q0 -98 15.5 -189.5t40 -171t56 -144t64.5 -107.5l-12 -29h-523q0 47 7.5 92t19.5 90h248z" />
<glyph unicode="&#x212e;" horiz-adv-x="1374" d="M430 242q0 -10 6 -34t23 -40q59 -59 145 -97t191 -38q117 0 210 47t162 129h88q-78 -98 -197.5 -153.5t-262.5 -55.5q-121 0 -228.5 42t-187.5 114.5t-127 171t-47 209.5t47 208t127 169.5t187.5 114.5t228.5 42q123 0 230.5 -43t187 -117.5t124.5 -175t45 -213.5h-940 q-12 0 -12 -16v-264zM1147 549q10 0 10 14v268q0 41 -22 70q-141 141 -340 141q-197 0 -338 -141q-10 -14 -18.5 -32.5t-8.5 -37.5v-268q0 -14 10 -14h707z" />
<glyph unicode="&#x2153;" horiz-adv-x="2150" d="M1653 1450q25 4 55.5 6t57.5 2t55.5 -2t50.5 -6l-1134 -1448q-29 -4 -53.5 -6t-49.5 -2q-27 0 -58.5 2t-56.5 6zM498 772l82 467l-193 -78q-41 55 -47 133l397 162h54l-119 -684h188q0 -37 -5 -72.5t-21 -72.5h-547q0 37 5 72.5t23 72.5h183zM1560 409l236 273h-295 q0 35 5 69.5t18 71.5h510l10 -31l-248 -295q96 -12 140 -71.5t44 -130.5q0 -76 -29.5 -135.5t-79.5 -99.5t-118 -61.5t-141 -21.5q-82 0 -146.5 13.5t-109.5 33.5q12 68 59 131q51 -16 97 -27.5t96 -11.5q37 0 71.5 8.5t62 27t44 49t16.5 73.5q0 59 -38 89t-101 30 q-16 0 -39 -2t-45 -6z" />
<glyph unicode="&#x2154;" horiz-adv-x="2150" d="M1663 1450q25 4 55.5 6t57.5 2t55.5 -2t50.5 -6l-1134 -1448q-29 -4 -53.5 -6t-49.5 -2q-27 0 -58.5 2t-56.5 6zM213 651l326 305q63 59 112 115.5t49 128.5q0 111 -116 111q-47 0 -98.5 -14.5t-92.5 -32.5q-12 29 -23.5 62.5t-13.5 70.5q59 27 127 44t144 17 q121 0 190.5 -61.5t69.5 -165.5q0 -55 -17.5 -102.5t-46 -88.5t-69.5 -79l-86 -82l-115 -105h303q0 -72 -27 -147h-612zM1595 409l236 273h-295q0 35 5 69.5t18 71.5h510l10 -31l-248 -295q96 -12 140 -71.5t44 -130.5q0 -76 -29.5 -135.5t-79.5 -99.5t-118 -61.5 t-141 -21.5q-82 0 -146.5 13.5t-109.5 33.5q12 68 59 131q51 -16 97 -27.5t96 -11.5q37 0 71.5 8.5t62 27t44 49t16.5 73.5q0 59 -38 89t-101 30q-16 0 -39 -2t-45 -6z" />
<glyph unicode="&#x2155;" horiz-adv-x="2150" d="M1653 1450q25 4 55.5 6t57.5 2t55.5 -2t50.5 -6l-1134 -1448q-29 -4 -53.5 -6t-49.5 -2q-27 0 -58.5 2t-56.5 6zM498 772l82 467l-193 -78q-41 55 -47 133l397 162h54l-119 -684h188q0 -37 -5 -72.5t-21 -72.5h-547q0 37 5 72.5t23 72.5h183zM1481 401l92 420h469 q0 -74 -25 -141h-327l-39 -160q20 4 45.5 8t54.5 4q51 0 96 -14.5t79 -42t53.5 -70.5t19.5 -100q0 -90 -32 -151.5t-86 -101.5t-123.5 -57.5t-143.5 -17.5q-84 0 -154.5 15.5t-109.5 35.5q10 37 22.5 70t40.5 70q41 -18 89 -31.5t106 -13.5q43 0 81 7t66.5 25.5t46 49 t17.5 77.5q0 53 -35 89t-115 36q-43 0 -81 -7t-85 -24z" />
<glyph unicode="&#x2156;" horiz-adv-x="2150" d="M1675 1450q25 4 55.5 6t57.5 2t55.5 -2t50.5 -6l-1134 -1448q-29 -4 -53.5 -6t-49.5 -2q-27 0 -58.5 2t-56.5 6zM213 651l326 305q63 59 112 115.5t49 128.5q0 111 -116 111q-47 0 -98.5 -14.5t-92.5 -32.5q-12 29 -23.5 62.5t-13.5 70.5q59 27 127 44t144 17 q121 0 190.5 -61.5t69.5 -165.5q0 -55 -17.5 -102.5t-46 -88.5t-69.5 -79l-86 -82l-115 -105h303q0 -72 -27 -147h-612zM1514 401l92 420h469q0 -74 -25 -141h-327l-39 -160q20 4 45.5 8t54.5 4q51 0 96 -14.5t79 -42t53.5 -70.5t19.5 -100q0 -90 -32 -151.5t-86 -101.5 t-123.5 -57.5t-143.5 -17.5q-84 0 -154.5 15.5t-109.5 35.5q10 37 22.5 70t40.5 70q41 -18 89 -31.5t106 -13.5q43 0 81 7t66.5 25.5t46 49t17.5 77.5q0 53 -35 89t-115 36q-43 0 -81 -7t-85 -24z" />
<glyph unicode="&#x2157;" horiz-adv-x="2150" d="M1618 1450q25 4 55.5 6t57.5 2t55.5 -2t50.5 -6l-1134 -1448q-29 -4 -53.5 -6t-49.5 -2q-27 0 -58.5 2t-56.5 6zM1460 401l92 420h469q0 -74 -25 -141h-327l-39 -160q20 4 45.5 8t54.5 4q51 0 96 -14.5t79 -42t53.5 -70.5t19.5 -100q0 -90 -32 -151.5t-86 -101.5 t-123.5 -57.5t-143.5 -17.5q-84 0 -154.5 15.5t-109.5 35.5q10 37 22.5 70t40.5 70q41 -18 89 -31.5t106 -13.5q43 0 81 7t66.5 25.5t46 49t17.5 77.5q0 53 -35 89t-115 36q-43 0 -81 -7t-85 -24zM446 1034l236 273h-295q0 35 5 69.5t18 71.5h510l10 -31l-248 -295 q96 -12 140 -71.5t44 -130.5q0 -76 -29.5 -135.5t-79.5 -99.5t-118 -61.5t-141 -21.5q-82 0 -146.5 13.5t-109.5 33.5q12 68 59 131q51 -16 97 -27.5t96 -11.5q37 0 71.5 8.5t62 27t44 49t16.5 73.5q0 59 -38 89t-101 30q-16 0 -39 -2t-45 -6z" />
<glyph unicode="&#x2158;" horiz-adv-x="2150" d="M1636 1450q25 4 55.5 6t57.5 2t55.5 -2t50.5 -6l-1134 -1448q-29 -4 -53.5 -6t-49.5 -2q-27 0 -58.5 2t-56.5 6zM1462 401l92 420h469q0 -74 -25 -141h-327l-39 -160q20 4 45.5 8t54.5 4q51 0 96 -14.5t79 -42t53.5 -70.5t19.5 -100q0 -90 -32 -151.5t-86 -101.5 t-123.5 -57.5t-143.5 -17.5q-84 0 -154.5 15.5t-109.5 35.5q10 37 22.5 70t40.5 70q41 -18 89 -31.5t106 -13.5q43 0 81 7t66.5 25.5t46 49t17.5 77.5q0 53 -35 89t-115 36q-43 0 -81 -7t-85 -24zM215 813l436 664q41 -6 79 -20.5t65 -33.5l-332 -499h201l30 168q18 4 36 5 t40 1q41 0 76 -6l-29 -168h94q0 -31 -5 -69t-17 -69h-94l-29 -161q-16 -2 -32.5 -3t-37.5 -1q-23 0 -41 1t-41 5l27 159h-416z" />
<glyph unicode="&#x2159;" horiz-adv-x="2150" d="M1671 1450q25 4 55.5 6t57.5 2t55.5 -2t50.5 -6l-1134 -1448q-29 -4 -53.5 -6t-49.5 -2q-27 0 -58.5 2t-56.5 6zM498 772l82 467l-193 -78q-41 55 -47 133l397 162h54l-119 -684h188q0 -37 -5 -72.5t-21 -72.5h-547q0 37 5 72.5t23 72.5h183zM1579 454q43 37 104 67 t133 30q98 0 160.5 -61.5t62.5 -166.5q0 -78 -30.5 -141.5t-80.5 -108.5t-119 -70.5t-146 -25.5q-145 0 -214 81t-69 212q0 123 45 225.5t123 178t184.5 122.5t233.5 60l9 -42q5 -24 5 -48q0 -25 -6 -45q-55 -4 -111.5 -20.5t-110 -48.5t-98 -81t-75.5 -117zM1681 114 q74 0 125 51.5t51 133.5q0 66 -32.5 93t-86.5 27q-33 0 -64.5 -13t-57 -35.5t-42 -56.5t-16.5 -73q0 -127 123 -127z" />
<glyph unicode="&#x215a;" horiz-adv-x="2150" d="M1618 1450q25 4 55.5 6t57.5 2t55.5 -2t50.5 -6l-1134 -1448q-29 -4 -53.5 -6t-49.5 -2q-27 0 -58.5 2t-56.5 6zM1524 454q43 37 104 67t133 30q98 0 160.5 -61.5t62.5 -166.5q0 -78 -30.5 -141.5t-80.5 -108.5t-119 -70.5t-146 -25.5q-145 0 -214 81t-69 212 q0 123 45 225.5t123 178t184.5 122.5t233.5 60l9 -42q5 -24 5 -48q0 -25 -6 -45q-55 -4 -111.5 -20.5t-110 -48.5t-98 -81t-75.5 -117zM1626 114q74 0 125 51.5t51 133.5q0 66 -32.5 93t-86.5 27q-33 0 -64.5 -13t-57 -35.5t-42 -56.5t-16.5 -73q0 -127 123 -127zM375 1026 l92 420h469q0 -74 -25 -141h-327l-39 -160q20 4 45.5 8t54.5 4q51 0 96 -14.5t79 -42t53.5 -70.5t19.5 -100q0 -90 -32 -151.5t-86 -101.5t-123.5 -57.5t-143.5 -17.5q-84 0 -154.5 15.5t-109.5 35.5q10 37 22.5 70t40.5 70q41 -18 89 -31.5t106 -13.5q43 0 81 7t66.5 25.5 t46 49t17.5 77.5q0 53 -35 89t-115 36q-43 0 -81 -7t-85 -24z" />
<glyph unicode="&#x215b;" horiz-adv-x="2150" d="M1669 1450q25 4 55.5 6t57.5 2t55.5 -2t50.5 -6l-1134 -1448q-29 -4 -53.5 -6t-49.5 -2q-27 0 -58.5 2t-56.5 6zM498 772l82 467l-193 -78q-41 55 -47 133l397 162h54l-119 -684h188q0 -37 -5 -72.5t-21 -72.5h-547q0 37 5 72.5t23 72.5h183zM1905 440q25 -14 49.5 -31.5 t44 -41t32.5 -53.5t13 -67q0 -66 -32.5 -115.5t-85 -83.5t-119 -51.5t-133.5 -17.5q-59 0 -111.5 12.5t-91.5 37t-62.5 62.5t-23.5 91q0 45 18.5 84t48 70.5t67.5 58.5t79 45q-45 29 -72 70t-27 96q0 59 27 105t70 77t99 46.5t118 15.5q117 0 187.5 -52.5t70.5 -140.5 q0 -66 -50 -124t-116 -93zM1719 372q-25 -10 -52.5 -23t-52 -32.5t-40 -46.5t-15.5 -61q0 -41 35 -70t102 -29q27 0 56.5 7.5t54 21.5t41 37.5t16.5 58.5q0 27 -13.5 48.5t-35 38t-46.5 29.5t-50 21zM1778 499q45 16 87 50t42 90q0 35 -27.5 59.5t-80.5 24.5 q-51 0 -94.5 -25t-43.5 -84q0 -45 40 -73t77 -42z" />
<glyph unicode="&#x215c;" horiz-adv-x="2150" d="M1626 1450q25 4 55.5 6t57.5 2t55.5 -2t50.5 -6l-1134 -1448q-29 -4 -53.5 -6t-49.5 -2q-27 0 -58.5 2t-56.5 6zM1890 440q25 -14 49.5 -31.5t44 -41t32.5 -53.5t13 -67q0 -66 -32.5 -115.5t-85 -83.5t-119 -51.5t-133.5 -17.5q-59 0 -111.5 12.5t-91.5 37t-62.5 62.5 t-23.5 91q0 45 18.5 84t48 70.5t67.5 58.5t79 45q-45 29 -72 70t-27 96q0 59 27 105t70 77t99 46.5t118 15.5q117 0 187.5 -52.5t70.5 -140.5q0 -66 -50 -124t-116 -93zM1704 372q-25 -10 -52.5 -23t-52 -32.5t-40 -46.5t-15.5 -61q0 -41 35 -70t102 -29q27 0 56.5 7.5 t54 21.5t41 37.5t16.5 58.5q0 27 -13.5 48.5t-35 38t-46.5 29.5t-50 21zM1763 499q45 16 87 50t42 90q0 35 -27.5 59.5t-80.5 24.5q-51 0 -94.5 -25t-43.5 -84q0 -45 40 -73t77 -42zM446 1034l236 273h-295q0 35 5 69.5t18 71.5h510l10 -31l-248 -295q96 -12 140 -71.5 t44 -130.5q0 -76 -29.5 -135.5t-79.5 -99.5t-118 -61.5t-141 -21.5q-82 0 -146.5 13.5t-109.5 33.5q12 68 59 131q51 -16 97 -27.5t96 -11.5q37 0 71.5 8.5t62 27t44 49t16.5 73.5q0 59 -38 89t-101 30q-16 0 -39 -2t-45 -6z" />
<glyph unicode="&#x215d;" horiz-adv-x="2150" d="M1630 1450q25 4 55.5 6t57.5 2t55.5 -2t50.5 -6l-1134 -1448q-29 -4 -53.5 -6t-49.5 -2q-27 0 -58.5 2t-56.5 6zM375 1026l92 420h469q0 -74 -25 -141h-327l-39 -160q20 4 45.5 8t54.5 4q51 0 96 -14.5t79 -42t53.5 -70.5t19.5 -100q0 -90 -32 -151.5t-86 -101.5 t-123.5 -57.5t-143.5 -17.5q-84 0 -154.5 15.5t-109.5 35.5q10 37 22.5 70t40.5 70q41 -18 89 -31.5t106 -13.5q43 0 81 7t66.5 25.5t46 49t17.5 77.5q0 53 -35 89t-115 36q-43 0 -81 -7t-85 -24zM1880 440q25 -14 49.5 -31.5t44 -41t32.5 -53.5t13 -67q0 -66 -32.5 -115.5 t-85 -83.5t-119 -51.5t-133.5 -17.5q-59 0 -111.5 12.5t-91.5 37t-62.5 62.5t-23.5 91q0 45 18.5 84t48 70.5t67.5 58.5t79 45q-45 29 -72 70t-27 96q0 59 27 105t70 77t99 46.5t118 15.5q117 0 187.5 -52.5t70.5 -140.5q0 -66 -50 -124t-116 -93zM1694 372 q-25 -10 -52.5 -23t-52 -32.5t-40 -46.5t-15.5 -61q0 -41 35 -70t102 -29q27 0 56.5 7.5t54 21.5t41 37.5t16.5 58.5q0 27 -13.5 48.5t-35 38t-46.5 29.5t-50 21zM1753 499q45 16 87 50t42 90q0 35 -27.5 59.5t-80.5 24.5q-51 0 -94.5 -25t-43.5 -84q0 -45 40 -73t77 -42z " />
<glyph unicode="&#x215e;" horiz-adv-x="2150" d="M1565 1450q25 4 55.5 6t57.5 2t55.5 -2t50.5 -6l-1134 -1448q-29 -4 -53.5 -6t-49.5 -2q-27 0 -58.5 2t-56.5 6zM1884 440q25 -14 49.5 -31.5t44 -41t32.5 -53.5t13 -67q0 -66 -32.5 -115.5t-85 -83.5t-119 -51.5t-133.5 -17.5q-59 0 -111.5 12.5t-91.5 37t-62.5 62.5 t-23.5 91q0 45 18.5 84t48 70.5t67.5 58.5t79 45q-45 29 -72 70t-27 96q0 59 27 105t70 77t99 46.5t118 15.5q117 0 187.5 -52.5t70.5 -140.5q0 -66 -50 -124t-116 -93zM1698 372q-25 -10 -52.5 -23t-52 -32.5t-40 -46.5t-15.5 -61q0 -41 35 -70t102 -29q27 0 56.5 7.5 t54 21.5t41 37.5t16.5 58.5q0 27 -13.5 48.5t-35 38t-46.5 29.5t-50 21zM1757 499q45 16 87 50t42 90q0 35 -27.5 59.5t-80.5 24.5q-51 0 -94.5 -25t-43.5 -84q0 -45 40 -73t77 -42zM760 1305h-367q0 37 7.5 72.5t17.5 70.5h598l8 -18l-502 -824q-47 10 -84 26.5t-71 39.5z " />
<glyph unicode="&#x2202;" horiz-adv-x="1202" d="M1010 868q0 84 -10.5 161t-41 136.5t-89 94t-152.5 34.5q-80 0 -143.5 -18.5t-129.5 -46.5q-16 29 -27 68.5t-11 80.5q78 45 169 70t195 25q121 0 206 -43.5t138 -116t76.5 -171t23.5 -208.5q0 -174 -29.5 -346t-103 -308.5t-198.5 -220.5t-316 -84q-84 0 -157.5 22.5 t-130 72t-89 128t-32.5 191.5q0 135 42 241.5t115.5 178.5t171 109.5t207.5 37.5q98 0 180.5 -28.5t135.5 -59.5zM989 692q-53 37 -129 63.5t-162 26.5t-148.5 -28.5t-104.5 -77.5t-62.5 -118t-20.5 -148q0 -135 58.5 -197.5t171.5 -62.5q176 0 269 142t128 400z" />
<glyph unicode="&#x2206;" horiz-adv-x="1187" d="M719 1448q27 4 62.5 6t64.5 2t59.5 -2t57.5 -6l215 -1448h-1155zM944 182l-139 1049l-483 -1049h622z" />
<glyph unicode="&#x220f;" horiz-adv-x="1490" d="M504 1266h-234q0 43 7.5 86t23.5 96h1382q0 -90 -30 -182h-232l-284 -1633q-23 -4 -49.5 -6t-53.5 -2q-29 0 -55.5 2t-48.5 6l284 1633h-503l-285 -1633q-27 -4 -54.5 -6t-54.5 -2q-29 0 -54 2t-46 6z" />
<glyph unicode="&#x2211;" horiz-adv-x="1052" d="M-76 -354l627 921l-281 863l13 18h903q0 -84 -31 -182h-618l227 -723l-494 -731h629q0 -51 -6 -94.5t-23 -90.5h-938z" />
<glyph unicode="&#x2212;" horiz-adv-x="1228" d="M1180 815v-14q0 -47 -8.5 -90t-22.5 -82h-868q0 49 8 94t24 92h867z" />
<glyph unicode="&#x2215;" horiz-adv-x="839" d="M798 1473q47 8 101 8q25 0 52 -2t52 -6l-733 -1473q-27 -4 -55.5 -6t-53.5 -2q-23 0 -47 2t-47 6z" />
<glyph unicode="&#x2219;" horiz-adv-x="493" d="M215 461q0 57 11 113.5t28 113.5q29 4 57.5 6.5t57.5 2.5t57.5 -2.5t54.5 -6.5q0 -59 -10 -113.5t-27 -113.5q-33 -4 -60.5 -6t-55.5 -2q-29 0 -56.5 2t-56.5 6z" />
<glyph unicode="&#x221a;" horiz-adv-x="1249" d="M383 666h-170q0 90 31 180h311l117 -647l649 1245q23 4 50.5 5t53.5 1q25 0 51.5 -1t49.5 -5l-776 -1444q-29 -4 -57.5 -6t-57.5 -2q-27 0 -53.5 2t-55.5 6z" />
<glyph unicode="&#x221e;" horiz-adv-x="1622" d="M803 557q-45 59 -81 97t-65.5 59.5t-55.5 29t-50 7.5q-74 0 -122 -54.5t-48 -140.5q0 -88 48 -140.5t120 -52.5q27 0 53.5 6.5t56 27t64.5 59.5t80 102zM1016 551q45 -59 81 -97t65.5 -59.5t55 -29t52.5 -7.5q72 0 120 54.5t48 140.5q0 88 -47.5 140t-118.5 52 q-29 0 -55.5 -6t-56.5 -26.5t-64.5 -59.5t-79.5 -102zM907 426q-53 -70 -101 -116t-93 -73.5t-87 -39t-83 -11.5q-72 0 -133.5 27t-107.5 76t-72.5 116.5t-26.5 149.5q0 80 26.5 147.5t72.5 116.5t108.5 77t134.5 28q86 0 175 -54.5t193 -185.5q104 135 192.5 186.5 t172.5 51.5q72 0 133.5 -27t107.5 -76t71.5 -116.5t25.5 -149.5q0 -80 -26.5 -147.5t-73 -116.5t-108.5 -77t-134 -28q-86 0 -176.5 54.5t-190.5 187.5z" />
<glyph unicode="&#x222b;" horiz-adv-x="739" d="M416 1092q23 199 133 290t280 91q59 0 103.5 -7.5t77.5 -17.5q-10 -49 -23.5 -87t-34.5 -77l-49 11q-31 7 -74 8q-43 0 -79.5 -9.5t-65.5 -35t-48.5 -70.5t-27.5 -117l-143 -1184q-12 -104 -51 -176.5t-96.5 -119t-131 -67t-159.5 -20.5q-57 0 -89 7.5t-63 17.5 q10 47 22.5 86t32.5 78l48 -10q30 -6 77 -7q43 0 79 9.5t63.5 35t46 70.5t28.5 117z" />
<glyph unicode="&#x2248;" horiz-adv-x="1228" d="M340 907q51 49 129 86t158 37q45 0 87 -13t84 -28.5t84 -28t89 -12.5q41 0 84 14.5t102 61.5q25 -31 39 -67.5t21 -73.5q-53 -47 -122 -78t-153 -31q-43 0 -87 12.5t-86 27.5t-84 28.5t-83 13.5q-49 0 -95 -16.5t-104 -63.5q-51 57 -63 131zM283 545q47 51 126.5 87 t159.5 36q45 0 87 -13.5t84 -29t84 -27.5t89 -12q41 0 84 14t103 62q25 -31 39 -68t18 -74q-53 -47 -120.5 -77.5t-151.5 -30.5q-43 0 -86 12t-85 27.5t-85 29t-86 13.5q-47 0 -93.5 -16.5t-103.5 -63.5q-25 29 -42 61.5t-21 69.5z" />
<glyph unicode="&#x2260;" horiz-adv-x="1228" d="M467 422h-217q0 47 8 94t23 90h303l137 211h-402q0 47 8.5 94t24.5 93h492l166 256q18 4 42.5 5t41.5 1q39 0 75 -6l-168 -256h220q0 -47 -8.5 -93.5t-24.5 -93.5h-307l-138 -211h406q0 -45 -7 -92t-24 -92h-493l-168 -258q-35 -6 -74 -6q-16 0 -41 1t-43 5z" />
<glyph unicode="&#x2264;" horiz-adv-x="1228" d="M1272 1210q0 -57 -10 -115.5t-22 -93.5l-699 -254l608 -258q0 -53 -11 -104t-25 -86l-773 346q0 121 37 217zM1117 188v-14q0 -47 -8.5 -90t-22.5 -82h-868q0 49 8 94t24 92h867z" />
<glyph unicode="&#x2265;" horiz-adv-x="1228" d="M963 768l-607 252q0 49 8.5 96t26.5 96l774 -348q0 -47 -9 -106.5t-30 -108.5l-895 -348q0 49 10.5 110.5t22.5 96.5zM1087 184q0 -47 -7 -92t-23 -92h-869q0 49 7.5 93t23.5 91h868z" />
<glyph unicode="&#x25ca;" horiz-adv-x="1087" d="M950 748l-178 548l-375 -561l176 -551zM193 741l503 740q27 4 53.5 6t49.5 2t49 -2t49 -6l254 -740l-504 -741q-25 -4 -54.5 -6t-51.5 -2q-23 0 -47.5 2t-47.5 6z" />
<glyph unicode="&#xe000;" horiz-adv-x="1060" d="M0 1060h1060v-1060h-1060v1060z" />
<glyph unicode="&#xf506;" horiz-adv-x="2150" d="M1665 1450q25 4 55.5 6t57.5 2t55.5 -2t50.5 -6l-1134 -1448q-29 -4 -53.5 -6t-49.5 -2q-27 0 -58.5 2t-56.5 6zM498 772l82 467l-193 -78q-41 55 -47 133l397 162h54l-119 -684h188q0 -37 -5 -72.5t-21 -72.5h-547q0 37 5 72.5t23 72.5h183zM1901 680h-367 q0 37 7.5 72.5t17.5 70.5h598l8 -18l-502 -824q-47 10 -84 26.5t-71 39.5z" />
<glyph unicode="&#xf507;" horiz-adv-x="2150" d="M1663 1450q25 4 55.5 6t57.5 2t55.5 -2t50.5 -6l-1134 -1448q-29 -4 -53.5 -6t-49.5 -2q-27 0 -58.5 2t-56.5 6zM213 651l326 305q63 59 112 115.5t49 128.5q0 111 -116 111q-47 0 -98.5 -14.5t-92.5 -32.5q-12 29 -23.5 62.5t-13.5 70.5q59 27 127 44t144 17 q121 0 190.5 -61.5t69.5 -165.5q0 -55 -17.5 -102.5t-46 -88.5t-69.5 -79l-86 -82l-115 -105h303q0 -72 -27 -147h-612zM1890 680h-367q0 37 7.5 72.5t17.5 70.5h598l8 -18l-502 -824q-47 10 -84 26.5t-71 39.5z" />
<glyph unicode="&#xf508;" horiz-adv-x="2150" d="M1628 1450q25 4 55.5 6t57.5 2t55.5 -2t50.5 -6l-1134 -1448q-29 -4 -53.5 -6t-49.5 -2q-27 0 -58.5 2t-56.5 6zM1905 680h-367q0 37 7.5 72.5t17.5 70.5h598l8 -18l-502 -824q-47 10 -84 26.5t-71 39.5zM446 1034l236 273h-295q0 35 5 69.5t18 71.5h510l10 -31 l-248 -295q96 -12 140 -71.5t44 -130.5q0 -76 -29.5 -135.5t-79.5 -99.5t-118 -61.5t-141 -21.5q-82 0 -146.5 13.5t-109.5 33.5q12 68 59 131q51 -16 97 -27.5t96 -11.5q37 0 71.5 8.5t62 27t44 49t16.5 73.5q0 59 -38 89t-101 30q-16 0 -39 -2t-45 -6z" />
<glyph unicode="&#xf509;" horiz-adv-x="2150" d="M1653 1450q25 4 55.5 6t57.5 2t55.5 -2t50.5 -6l-1134 -1448q-29 -4 -53.5 -6t-49.5 -2q-27 0 -58.5 2t-56.5 6zM215 813l436 664q41 -6 79 -20.5t65 -33.5l-332 -499h201l30 168q18 4 36 5t40 1q41 0 76 -6l-29 -168h94q0 -31 -5 -69t-17 -69h-94l-29 -161 q-16 -2 -32.5 -3t-37.5 -1q-23 0 -41 1t-41 5l27 159h-416zM1888 680h-367q0 37 7.5 72.5t17.5 70.5h598l8 -18l-502 -824q-47 10 -84 26.5t-71 39.5z" />
<glyph unicode="&#xf50a;" horiz-adv-x="2150" d="M1645 1450q25 4 55.5 6t57.5 2t55.5 -2t50.5 -6l-1134 -1448q-29 -4 -53.5 -6t-49.5 -2q-27 0 -58.5 2t-56.5 6zM412 1026l92 420h469q0 -74 -25 -141h-327l-39 -160q20 4 45.5 8t54.5 4q51 0 96 -14.5t79 -42t53.5 -70.5t19.5 -100q0 -90 -32 -151.5t-86 -101.5 t-123.5 -57.5t-143.5 -17.5q-84 0 -154.5 15.5t-109.5 35.5q10 37 22.5 70t40.5 70q41 -18 89 -31.5t106 -13.5q43 0 81 7t66.5 25.5t46 49t17.5 77.5q0 53 -35 89t-115 36q-43 0 -81 -7t-85 -24zM1876 680h-367q0 37 7.5 72.5t17.5 70.5h598l8 -18l-502 -824 q-47 10 -84 26.5t-71 39.5z" />
<glyph unicode="&#xf50b;" horiz-adv-x="2150" d="M1634 1450q25 4 55.5 6t57.5 2t55.5 -2t50.5 -6l-1134 -1448q-29 -4 -53.5 -6t-49.5 -2q-27 0 -58.5 2t-56.5 6zM465 1079q43 37 104 67t133 30q98 0 160.5 -61.5t62.5 -166.5q0 -78 -30.5 -141.5t-80.5 -108.5t-119 -70.5t-146 -25.5q-145 0 -214 81t-69 212 q0 123 45 225.5t123 178t184.5 122.5t233.5 60l9 -42q5 -24 5 -48q0 -25 -6 -45q-55 -4 -111.5 -20.5t-110 -48.5t-98 -81t-75.5 -117zM567 739q74 0 125 51.5t51 133.5q0 66 -32.5 93t-86.5 27q-33 0 -64.5 -13t-57 -35.5t-42 -56.5t-16.5 -73q0 -127 123 -127zM1880 680 h-367q0 37 7.5 72.5t17.5 70.5h598l8 -18l-502 -824q-47 10 -84 26.5t-71 39.5z" />
<glyph unicode="&#xf50c;" horiz-adv-x="2150" d="M1661 1450q25 4 55.5 6t57.5 2t55.5 -2t50.5 -6l-1134 -1448q-29 -4 -53.5 -6t-49.5 -2q-27 0 -58.5 2t-56.5 6zM498 772l82 467l-193 -78q-41 55 -47 133l397 162h54l-119 -684h188q0 -37 -5 -72.5t-21 -72.5h-547q0 37 5 72.5t23 72.5h183zM1520 -23q-6 23 -10 45.5 t-4 44.5q0 25 6 49q55 4 112.5 19.5t110.5 46.5t97 78t75 114q-47 -41 -102.5 -65.5t-126.5 -24.5q-102 0 -166 64.5t-64 173.5q0 76 30 137.5t79 105.5t114.5 67.5t139.5 23.5q154 0 225.5 -84t71.5 -219q0 -121 -44 -222.5t-123 -176t-186.5 -121t-234.5 -56.5zM1749 413 q33 0 65 12.5t56.5 36t41 55.5t16.5 70q0 63 -33 99.5t-99 36.5q-70 0 -121 -49.5t-51 -131.5q0 -129 125 -129z" />
<glyph unicode="&#xf50d;" horiz-adv-x="2150" d="M1661 1450q25 4 55.5 6t57.5 2t55.5 -2t50.5 -6l-1134 -1448q-29 -4 -53.5 -6t-49.5 -2q-27 0 -58.5 2t-56.5 6zM213 651l326 305q63 59 112 115.5t49 128.5q0 111 -116 111q-47 0 -98.5 -14.5t-92.5 -32.5q-12 29 -23.5 62.5t-13.5 70.5q59 27 127 44t144 17 q121 0 190.5 -61.5t69.5 -165.5q0 -55 -17.5 -102.5t-46 -88.5t-69.5 -79l-86 -82l-115 -105h303q0 -72 -27 -147h-612zM1516 -23q-6 23 -10 45.5t-4 44.5q0 25 6 49q55 4 112.5 19.5t110.5 46.5t97 78t75 114q-47 -41 -102.5 -65.5t-126.5 -24.5q-102 0 -166 64.5 t-64 173.5q0 76 30 137.5t79 105.5t114.5 67.5t139.5 23.5q154 0 225.5 -84t71.5 -219q0 -121 -44 -222.5t-123 -176t-186.5 -121t-234.5 -56.5zM1745 413q33 0 65 12.5t56.5 36t41 55.5t16.5 70q0 63 -33 99.5t-99 36.5q-70 0 -121 -49.5t-51 -131.5q0 -129 125 -129z" />
<glyph unicode="&#xf50e;" horiz-adv-x="2150" d="M1626 1450q25 4 55.5 6t57.5 2t55.5 -2t50.5 -6l-1134 -1448q-29 -4 -53.5 -6t-49.5 -2q-27 0 -58.5 2t-56.5 6zM215 813l436 664q41 -6 79 -20.5t65 -33.5l-332 -499h201l30 168q18 4 36 5t40 1q41 0 76 -6l-29 -168h94q0 -31 -5 -69t-17 -69h-94l-29 -161 q-16 -2 -32.5 -3t-37.5 -1q-23 0 -41 1t-41 5l27 159h-416zM1497 -23q-6 23 -10 45.5t-4 44.5q0 25 6 49q55 4 112.5 19.5t110.5 46.5t97 78t75 114q-47 -41 -102.5 -65.5t-126.5 -24.5q-102 0 -166 64.5t-64 173.5q0 76 30 137.5t79 105.5t114.5 67.5t139.5 23.5 q154 0 225.5 -84t71.5 -219q0 -121 -44 -222.5t-123 -176t-186.5 -121t-234.5 -56.5zM1726 413q33 0 65 12.5t56.5 36t41 55.5t16.5 70q0 63 -33 99.5t-99 36.5q-70 0 -121 -49.5t-51 -131.5q0 -129 125 -129z" />
<glyph unicode="&#xf50f;" horiz-adv-x="2150" d="M1612 1450q25 4 55.5 6t57.5 2t55.5 -2t50.5 -6l-1134 -1448q-29 -4 -53.5 -6t-49.5 -2q-27 0 -58.5 2t-56.5 6zM375 1026l92 420h469q0 -74 -25 -141h-327l-39 -160q20 4 45.5 8t54.5 4q51 0 96 -14.5t79 -42t53.5 -70.5t19.5 -100q0 -90 -32 -151.5t-86 -101.5 t-123.5 -57.5t-143.5 -17.5q-84 0 -154.5 15.5t-109.5 35.5q10 37 22.5 70t40.5 70q41 -18 89 -31.5t106 -13.5q43 0 81 7t66.5 25.5t46 49t17.5 77.5q0 53 -35 89t-115 36q-43 0 -81 -7t-85 -24zM1483 -23q-6 23 -10 45.5t-4 44.5q0 25 6 49q55 4 112.5 19.5t110.5 46.5 t97 78t75 114q-47 -41 -102.5 -65.5t-126.5 -24.5q-102 0 -166 64.5t-64 173.5q0 76 30 137.5t79 105.5t114.5 67.5t139.5 23.5q154 0 225.5 -84t71.5 -219q0 -121 -44 -222.5t-123 -176t-186.5 -121t-234.5 -56.5zM1712 413q33 0 65 12.5t56.5 36t41 55.5t16.5 70 q0 63 -33 99.5t-99 36.5q-70 0 -121 -49.5t-51 -131.5q0 -129 125 -129z" />
<glyph unicode="&#xf510;" horiz-adv-x="2150" d="M1534 1450q25 4 55.5 6t57.5 2t55.5 -2t50.5 -6l-1134 -1448q-29 -4 -53.5 -6t-49.5 -2q-27 0 -58.5 2t-56.5 6zM1477 -23q-6 23 -10 45.5t-4 44.5q0 25 6 49q55 4 112.5 19.5t110.5 46.5t97 78t75 114q-47 -41 -102.5 -65.5t-126.5 -24.5q-102 0 -166 64.5t-64 173.5 q0 76 30 137.5t79 105.5t114.5 67.5t139.5 23.5q154 0 225.5 -84t71.5 -219q0 -121 -44 -222.5t-123 -176t-186.5 -121t-234.5 -56.5zM1706 413q33 0 65 12.5t56.5 36t41 55.5t16.5 70q0 63 -33 99.5t-99 36.5q-70 0 -121 -49.5t-51 -131.5q0 -129 125 -129zM760 1305h-367 q0 37 7.5 72.5t17.5 70.5h598l8 -18l-502 -824q-47 10 -84 26.5t-71 39.5z" />
<glyph unicode="&#xf511;" horiz-adv-x="2150" d="M1624 1450q25 4 55.5 6t57.5 2t55.5 -2t50.5 -6l-1134 -1448q-29 -4 -53.5 -6t-49.5 -2q-27 0 -58.5 2t-56.5 6zM1481 -23q-6 23 -10 45.5t-4 44.5q0 25 6 49q55 4 112.5 19.5t110.5 46.5t97 78t75 114q-47 -41 -102.5 -65.5t-126.5 -24.5q-102 0 -166 64.5t-64 173.5 q0 76 30 137.5t79 105.5t114.5 67.5t139.5 23.5q154 0 225.5 -84t71.5 -219q0 -121 -44 -222.5t-123 -176t-186.5 -121t-234.5 -56.5zM1710 413q33 0 65 12.5t56.5 36t41 55.5t16.5 70q0 63 -33 99.5t-99 36.5q-70 0 -121 -49.5t-51 -131.5q0 -129 125 -129zM768 1065 q25 -14 49.5 -31.5t44 -41t32.5 -53.5t13 -67q0 -66 -32.5 -115.5t-85 -83.5t-119 -51.5t-133.5 -17.5q-59 0 -111.5 12.5t-91.5 37t-62.5 62.5t-23.5 91q0 45 18.5 84t48 70.5t67.5 58.5t79 45q-45 29 -72 70t-27 96q0 59 27 105t70 77t99 46.5t118 15.5q117 0 187.5 -52.5 t70.5 -140.5q0 -66 -50 -124t-116 -93zM582 997q-25 -10 -52.5 -23t-52 -32.5t-40 -46.5t-15.5 -61q0 -41 35 -70t102 -29q27 0 56.5 7.5t54 21.5t41 37.5t16.5 58.5q0 27 -13.5 48.5t-35 38t-46.5 29.5t-50 21zM641 1124q45 16 87 50t42 90q0 35 -27.5 59.5t-80.5 24.5 q-51 0 -94.5 -25t-43.5 -84q0 -45 40 -73t77 -42z" />
<glyph unicode="&#xf605;" horiz-adv-x="1069" d="M602 1122q27 4 69 5t66 1q27 0 59.5 -1t53.5 -5l172 -1122q-18 -2 -46 -4t-52 -2q-27 0 -60 1t-55 5l-31 248h-399l-115 -248q-18 -2 -44.5 -4t-55.5 -2q-20 0 -49 2t-62 8zM758 408l-66 522l-241 -522h307z" />
<glyph unicode="&#xf606;" horiz-adv-x="1050" d="M365 1122q25 4 62.5 7.5t79.5 6.5t84 5t79 2q180 0 276 -62.5t96 -185.5q0 -117 -69.5 -191.5t-167.5 -103.5q92 -18 148.5 -79.5t56.5 -160.5q0 -109 -46 -181.5t-121 -116.5t-172.5 -63t-197.5 -19q-74 0 -154.5 5t-148.5 15zM395 147q29 -6 56.5 -7t56.5 -1 q55 0 108.5 11.5t94.5 36t66.5 65.5t25.5 102q0 84 -58.5 119t-156.5 35h-127zM588 664q121 0 185.5 53t64.5 143q0 63 -39 98t-137 35q-33 0 -66 -2t-51 -6l-58 -321h101z" />
<glyph unicode="&#xf607;" horiz-adv-x="1034" d="M948 199q37 -66 43 -154q-74 -35 -161 -50t-166 -15q-113 0 -198 31.5t-142.5 90t-86 141.5t-28.5 183q0 131 39 260t121 230.5t205.5 164t295.5 62.5q82 0 151 -13.5t122 -35.5q-8 -37 -23.5 -78t-44.5 -82q-51 20 -103 30.5t-118 10.5q-113 0 -193.5 -46t-133 -120 t-78 -168t-25.5 -190q0 -143 66.5 -223.5t209.5 -80.5q127 1 248 52z" />
<glyph unicode="&#xf608;" horiz-adv-x="1214" d="M367 1122q29 4 68 7l82 7q42 3 83 5t72 2q147 0 249.5 -35t166 -96.5t92 -146.5t28.5 -183q0 -141 -42 -268t-130 -223.5t-224 -153.5t-327 -57q-37 0 -80 1t-86 4t-81.5 7t-67.5 10zM399 158q25 -4 62 -6t67 -2q113 0 200 39.5t146.5 108.5t91 162t31.5 199 q0 76 -17 134.5t-55 98.5t-100.5 61.5t-154.5 21.5q-27 0 -64 -3t-65 -7z" />
<glyph unicode="&#xf609;" horiz-adv-x="952" d="M362 1122h691q-2 -43 -7.5 -84t-21.5 -86h-487l-50 -282h379q0 -86 -28 -170h-379l-60 -332h492q-6 -90 -33 -168h-690z" />
<glyph unicode="&#xf60a;" horiz-adv-x="905" d="M362 1122h660q0 -41 -7 -85t-24 -85h-456l-56 -313h375q0 -45 -7 -87t-24 -83h-372l-82 -469q-29 -4 -55.5 -5t-59.5 -1q-16 0 -43 2t-45 4z" />
<glyph unicode="&#xf60b;" horiz-adv-x="1144" d="M907 584q43 6 101 6q59 0 102 -6l-98 -539q-29 -14 -69 -26.5t-87 -20.5t-98 -13t-101 -5q-227 0 -343.5 120.5t-116.5 327.5q0 135 41 263t122.5 228.5t204.5 162t289 61.5q98 0 170 -16.5t117 -32.5q-16 -84 -74 -158q-51 18 -100 28.5t-115 10.5q-115 0 -198 -45 t-136 -118t-79.5 -166t-26.5 -191q0 -154 68.5 -234t207.5 -80q72 0 143 23z" />
<glyph unicode="&#xf60c;" horiz-adv-x="1214" d="M365 1122q20 4 45.5 6t52.5 2t52.5 -2t49.5 -6l-78 -458h467l80 458q23 4 49.5 6t55.5 2q25 0 49 -2t49 -6l-197 -1122q-23 -4 -48 -6t-54 -2q-53 0 -100 10l86 490h-467l-86 -492q-23 -4 -49.5 -6t-53.5 -2q-53 0 -98 10z" />
<glyph unicode="&#xf60d;" horiz-adv-x="538" d="M365 1122q23 4 48 6t50 2q33 0 57.5 -2t46.5 -6l-198 -1122q-23 -4 -47.5 -6t-55.5 -2q-53 0 -98 10z" />
<glyph unicode="&#xf60e;" horiz-adv-x="735" d="M539 961h-215q2 45 7 84.5t19 82.5h418l-145 -835q-31 -176 -127.5 -247t-257.5 -71q-43 0 -94.5 8.5t-86.5 22.5q2 47 15.5 86t31.5 76q25 -8 59 -15.5t75 -7.5q31 0 60.5 5.5t54 24t44 53t29.5 91.5z" />
<glyph unicode="&#xf60f;" horiz-adv-x="1067" d="M362 1122q45 6 101 6q57 0 100 -6l-194 -1122q-43 -6 -101 -6q-25 0 -51.5 1t-48.5 5zM516 575l465 547q55 6 102 6q33 0 63 -2t58 -6l-465 -538l312 -582l-57 -4q-28 -2 -62 -2q-51 0 -103 6z" />
<glyph unicode="&#xf610;" horiz-adv-x="884" d="M365 1122q43 6 100 6q59 0 102 -6l-168 -952h455q-2 -49 -9 -90t-20 -80h-659z" />
<glyph unicode="&#xf611;" horiz-adv-x="1437" d="M393 1122q23 4 54.5 6t60.5 2q31 0 57.5 -2t48.5 -6l177 -700l411 700q20 4 53 6t64 2q29 0 56.5 -2t47.5 -6l-133 -1122q-23 -4 -47 -6t-51 -2q-29 0 -54.5 2t-41.5 6l100 809l-362 -600q-41 -6 -89 -6q-23 0 -42 1t-37 5l-162 598l-174 -807q-23 -4 -43.5 -6t-48.5 -2 q-47 0 -99 10z" />
<glyph unicode="&#xf612;" horiz-adv-x="1220" d="M365 1122q20 4 46.5 5t49.5 1q25 0 47 -1t43 -5l364 -809l140 809q33 6 90 6q61 0 96 -6l-197 -1122q-18 -4 -43.5 -5t-52.5 -1q-51 0 -88 6l-364 803l-142 -803q-16 -4 -37.5 -5t-58.5 -1q-33 0 -53.5 2t-36.5 6z" />
<glyph unicode="&#xf613;" horiz-adv-x="1249" d="M608 -20q-104 0 -182 30.5t-130 87t-77.5 134t-25.5 171.5q0 143 41.5 277.5t121.5 237t195 164t260 61.5q106 0 184 -32t130.5 -89t78 -135t25.5 -170q0 -152 -43 -286t-123 -234.5t-196 -158.5t-259 -58zM629 145q92 0 163.5 48.5t122 127t77 179t26.5 205.5 q0 123 -55.5 196.5t-174.5 73.5q-94 0 -165.5 -48t-120.5 -126t-75 -179.5t-26 -205.5q0 -127 55.5 -199t172.5 -72z" />
<glyph unicode="&#xf614;" horiz-adv-x="1034" d="M365 1122q27 4 63.5 7.5t77.5 6.5t84 5t82 2q84 0 158.5 -16.5t130 -52.5t87 -94t31.5 -142q0 -117 -43 -204t-115.5 -146.5t-169 -89t-202.5 -29.5h-60q-31 0 -53 4l-67 -373q-43 -6 -101 -6q-23 0 -51.5 2t-48.5 6zM465 539q20 -4 44 -4h48q147 0 230 71.5t83 200.5 q0 170 -227 170q-23 0 -53.5 -1t-48.5 -5z" />
<glyph unicode="&#xf615;" horiz-adv-x="1249" d="M1128 -90q-6 -80 -51 -158l-381 66q6 80 47 153zM608 -16q-104 0 -182 30.5t-130 87t-77.5 134t-25.5 172.5q0 143 41.5 277t121.5 236.5t195 164t260 61.5q106 0 184 -32t130.5 -89t78 -135t25.5 -170q0 -152 -43 -286t-123 -234.5t-196 -158.5t-259 -58zM629 150 q92 0 163.5 48t122 126.5t77 179t26.5 205.5q0 123 -55.5 196.5t-174.5 73.5q-94 0 -165.5 -48t-120.5 -126t-75 -179.5t-26 -205.5q0 -127 55.5 -198.5t172.5 -71.5z" />
<glyph unicode="&#xf616;" horiz-adv-x="1054" d="M365 1124q72 8 154.5 13.5t154.5 5.5q86 0 158.5 -17.5t126 -53.5t83 -90t29.5 -128t-23.5 -132t-63.5 -105.5t-91 -83t-105 -62.5l218 -467q-31 -4 -49.5 -5t-34.5 -3h-62q-23 0 -43 1t-39 3l-231 522l67 31q39 18 81 40.5t78 55.5t58.5 75t22.5 97q0 72 -48 116 t-147 44q-29 0 -58.5 -1t-61.5 -5l-170 -975q-23 -4 -49.5 -5t-55.5 -1q-20 0 -45.5 2t-50.5 6z" />
<glyph unicode="&#xf617;" horiz-adv-x="968" d="M643 672q61 -31 111.5 -60.5t85 -65.5t54 -80t19.5 -104q0 -96 -37.5 -167.5t-104 -118.5t-158 -71.5t-197.5 -24.5q-92 0 -175 14t-143 41q8 37 23.5 80t38.5 82q66 -23 134 -37.5t140 -14.5q59 0 107.5 15.5t82 41t51 58.5t17.5 70q0 66 -45 105.5t-137 80.5 q-109 49 -177.5 113.5t-68.5 177.5q0 74 31 136.5t88 106.5t137 68.5t178 24.5q94 0 168 -15.5t133 -37.5q-6 -41 -22 -86.5t-39 -75.5q-43 20 -110.5 37.5t-129.5 17.5q-43 0 -84 -10t-72.5 -28.5t-51 -45.5t-19.5 -59q0 -51 42 -89t116 -73z" />
<glyph unicode="&#xf618;" horiz-adv-x="937" d="M526 952h-317q0 45 7 86t22 84h833q0 -43 -6 -85t-23 -85h-313l-168 -952q-23 0 -48.5 -1t-51.5 -1q-25 0 -51.5 1t-49.5 1z" />
<glyph unicode="&#xf619;" horiz-adv-x="1224" d="M367 1122q23 4 50 5t54 1q47 0 96 -6l-98 -565q-12 -66 -20.5 -124t-8.5 -101q0 -96 43 -138t154 -42q70 0 119 19t82.5 59t54 99.5t35.5 137.5l119 655q51 6 100 6q53 0 100 -6l-121 -680q-20 -113 -57 -199.5t-97.5 -145t-149.5 -88t-212 -29.5q-203 0 -287.5 90 t-84.5 243q0 49 7 104.5t17 106.5z" />
<glyph unicode="&#xf61a;" horiz-adv-x="1077" d="M244 1120q29 4 58.5 6t53.5 2q29 0 56.5 -2t50.5 -6l117 -893l411 895q18 2 40 4t44 2h55q23 0 41.5 -2t38.5 -6l-551 -1120q-25 -4 -60.5 -5t-57.5 -1q-27 0 -63 1t-54 5z" />
<glyph unicode="&#xf61b;" horiz-adv-x="1603" d="M233 1122q23 4 51.5 5t59.5 1q25 0 51.5 -2t46.5 -6l41 -878l402 878q27 4 56.5 6t51.5 2q23 0 49.5 -1t44.5 -5l87 -899l364 899q39 6 94 6q31 0 56.5 -2t48.5 -6l-477 -1120q-23 -4 -61 -5t-64 -1q-31 0 -66 1t-57 5l-78 840l-383 -840q-23 -4 -52.5 -5t-49.5 -1h-56 l-78 6z" />
<glyph unicode="&#xf61c;" horiz-adv-x="1054" d="M422 590l-152 532q57 6 115 6q27 0 47.5 -1t44.5 -5l150 -536l-377 -586q-29 -4 -59.5 -5t-55.5 -1q-20 0 -49 2t-59 6zM641 586l340 536q55 6 98 6q20 0 55 -1t62 -5l-348 -538l190 -584q-10 -2 -26 -3l-33 -2q-16 -1 -32 -1h-23q-41 0 -99 6z" />
<glyph unicode="&#xf61d;" horiz-adv-x="974" d="M197 1120q29 4 56.5 6t55.5 2q51 0 99 -6l167 -536l347 536q45 6 104 6q29 0 55.5 -2t55.5 -6l-496 -735l-68 -385q-43 -6 -100 -6q-47 0 -98 6l36 199l33 198z" />
<glyph unicode="&#xf61e;" horiz-adv-x="960" d="M53 23l692 929h-489q0 47 6 89t25 81h778l14 -22l-694 -932h530q-2 -88 -28 -168h-824z" />
<glyph unicode="&#xf61f;" horiz-adv-x="1574" d="M84 -6q-16 0 -42 2t-42 4l422 561l424 561h829q-2 -43 -7 -84t-21 -86h-488l-49 -282h379q0 -86 -29 -170h-379l-59 -332h491q-6 -90 -32 -168h-693l41 238h-419l-183 -238q-20 -2 -46.5 -4t-49.5 -2h-47zM856 399l102 557h-14l-418 -557h330z" />
<glyph unicode="&#xf620;" horiz-adv-x="1220" d="M365 1122q20 4 46.5 5t49.5 1q25 0 47 -1t43 -5l364 -809l140 809q23 4 48 5t50 1q23 0 44.5 -1t43.5 -5l-215 -1228q-18 -104 -48 -178t-76 -121.5t-110.5 -69t-154.5 -21.5q-23 0 -52.5 2t-57 6.5t-47 11.5t-19.5 19q0 37 9 75t28 69l56.5 -14.5t68.5 -8.5q29 0 59.5 7 t57 27.5t46 53.5t29.5 86l33 189l-352 776l-142 -803q-41 -6 -94 -6q-23 0 -46.5 2t-45.5 6z" />
<glyph unicode="&#xf621;" horiz-adv-x="1558" d="M1497 168q-6 -90 -33 -168h-682q-80 -18 -168 -18q-207 0 -314 116.5t-107 311.5q0 150 41.5 282.5t120.5 233t194 159t260 58.5q43 0 90 -5t82 -16h680q-2 -43 -7 -84t-22 -86h-487l-51 -282h379q0 -86 -29 -170h-379l-59 -332h491zM940 944q-63 29 -149 29 q-98 0 -171 -46t-122 -123t-74 -176.5t-25 -205.5q0 -133 62.5 -205t185.5 -72q41 0 81 6.5t75 20.5z" />
<glyph unicode="&#xf622;" horiz-adv-x="1236" d="M279 494h-136q0 43 5.5 79.5t21.5 77.5h133l84 471q31 4 70 7l81 7q42 3 83 5t71 2q150 0 252.5 -35t166 -96.5t92 -146.5t28.5 -183q0 -141 -42 -268t-131 -223.5t-225.5 -153.5t-326.5 -57q-37 0 -80 1t-86 4t-82 7t-65 10zM420 158q27 -4 63.5 -6t67.5 -2 q113 0 200 39.5t146 108.5t90 162t31 199q0 76 -16.5 134.5t-55.5 98.5t-100.5 61.5t-153.5 21.5q-27 0 -64.5 -3t-66.5 -7l-55 -314h274q0 -82 -26 -157h-275z" />
<glyph unicode="&#xf623;" horiz-adv-x="1167" d="M287 813h-117q2 39 6 73t21 75h116l29 161q20 4 45 6t53 2q27 0 52.5 -2t50.5 -6l-29 -161h467l29 161q23 4 49 6t55 2q27 0 51.5 -2t48.5 -6l-28 -161h112q0 -41 -7 -77t-19 -71h-113l-143 -813q-20 -4 -47 -6t-56 -2q-53 0 -98 10l86 490h-467l-86 -492 q-23 -4 -49.5 -6t-54.5 -2q-53 0 -99 10zM930 664l26 149h-467l-26 -149h467z" />
<glyph unicode="&#xf624;" horiz-adv-x="1263" d="M365 1122q23 4 48 6t50 2q33 0 57.5 -2t46.5 -6l-198 -1122q-23 -4 -47.5 -6t-55.5 -2q-53 0 -98 10zM1065 961h-215q2 45 7 84.5t19 82.5h418l-145 -835q-31 -176 -127.5 -247t-257.5 -71q-43 0 -94.5 8.5t-86.5 22.5q2 47 15.5 86t31.5 76q25 -8 59 -15.5t75 -7.5 q31 0 60.5 5.5t54 24t44 53t29.5 91.5z" />
<glyph unicode="&#xf625;" horiz-adv-x="538" d="M365 1122q23 4 48 6t50 2q33 0 57.5 -2t46.5 -6l-198 -1122q-23 -4 -47.5 -6t-55.5 -2q-53 0 -98 10zM375 1243q0 59 9 112.5t25 108.5q29 4 63 6t58 2q23 0 54.5 -2t58.5 -6q-4 -115 -39 -221q-29 -2 -61.5 -3t-55.5 -1q-25 0 -57 1t-55 3z" />
<glyph unicode="&#xf626;" horiz-adv-x="538" d="M365 1122q23 4 48 6t50 2q33 0 57.5 -2t46.5 -6l-198 -1122q-23 -4 -47.5 -6t-55.5 -2q-53 0 -98 10z" />
<glyph unicode="&#xf627;" horiz-adv-x="1249" d="M258 145q-66 106 -65 258q0 143 41.5 277.5t121.5 237t195 164t260 61.5q164 0 264 -76l76 84q25 6 70 6q20 0 45.5 -1t42.5 -5l-154 -170q74 -109 74 -264q0 -152 -43 -286t-123 -234.5t-195.5 -158.5t-259.5 -58q-166 0 -270 79l-80 -92q-14 -4 -39.5 -5t-46.5 -1 q-45 0 -72 6zM942 920q-59 55 -154 55q-94 0 -165.5 -48t-120.5 -126t-75 -179.5t-26 -205.5q0 -29 2.5 -52.5t10.5 -46.5zM469 203q57 -57 160 -58q92 0 163.5 48.5t122 127t77 179t26.5 205.5q0 57 -19 106z" />
<glyph unicode="&#xf628;" horiz-adv-x="1038" d="M365 1122q16 4 42.5 6t59.5 2q25 0 50.5 -2t43.5 -6l-20 -118q25 2 47 3t57 1q86 0 161 -16.5t130 -52.5t87 -94.5t32 -142.5q0 -115 -43 -198.5t-115 -139t-168 -82t-203 -26.5h-58q-30 0 -54 4l-45 -260q-43 -6 -101 -6q-23 0 -51.5 2t-48.5 6zM442 426q43 -6 95 -6 q147 0 228 62.5t81 191.5q0 174 -230 174q-23 0 -52 -1t-48 -5z" />
<glyph unicode="&#xf629;" horiz-adv-x="937" d="M442 475h-206q2 41 6 75t20 75h207l57 327h-317q0 45 7 86t22 84h833q0 -43 -6 -85t-23 -85h-313l-59 -327h225q0 -82 -27 -150h-223l-84 -475q-27 0 -57.5 -1t-63.5 -1q-18 0 -40.5 1t-39.5 1z" />
<glyph unicode="&#xf62a;" horiz-adv-x="1067" d="M362 1122q45 6 101 6q57 0 100 -6l-194 -1122q-43 -6 -101 -6q-25 0 -51.5 1t-48.5 5zM516 575l465 547q55 6 102 6q33 0 63 -2t58 -6l-465 -538l312 -582l-57 -4q-28 -2 -62 -2q-51 0 -103 6z" />
<glyph unicode="&#xf62b;" horiz-adv-x="884" d="M242 428l-148 -59q0 43 5 88t22 84l151 63l93 518q20 4 45.5 5t54.5 1q59 0 102 -6l-82 -456l250 104q0 -45 -4 -86t-20 -86l-256 -106l-56 -322h455q-2 -49 -9 -90t-20 -80h-659z" />
<glyph unicode="&#xf62c;" horiz-adv-x="1257" d="M967 727q6 37 10 75t4 77v30q37 18 88 28.5t90 10.5q2 -16 3 -34.5t1 -36.5q0 -55 -16 -150h182q0 -41 -7 -78t-19 -71h-183l-30 -185q-35 -205 -158 -309t-365 -104q-188 0 -296.5 85t-108.5 234q0 123 65.5 213t182.5 139q-37 23 -73 70t-36 119q0 76 32 132t84 94 t118.5 57.5t138.5 19.5q131 0 237 -39q-12 -88 -63 -141q-45 14 -87 22t-85 8q-84 0 -132 -43t-48 -102q0 -66 42 -93.5t101 -27.5h328zM940 578h-295q-133 0 -208 -71t-75 -181q0 -82 55.5 -136.5t172.5 -54.5q86 0 142 22.5t93 61.5t57.5 91t30.5 112z" />
</font>
</defs>
</svg>
